<?xml version="1.0" standalone="no"?>
<!DOCTYPE svg PUBLIC "-//W3C//DTD SVG 1.1//EN" "http://www.w3.org/Graphics/SVG/1.1/DTD/svg11.dtd" >
<svg xmlns="http://www.w3.org/2000/svg">
  <metadata>Created by iconfont</metadata>
  <defs>
  <font id="iconfont" horiz-adv-x="1024">
    <font-face
      font-family="iconfont"
      font-weight="400"
      font-stretch="normal"
      units-per-em="1024"
      ascent="896"
      descent="-128"
    />
      <missing-glyph />
      
      <glyph glyph-name="top" unicode="&#58911;" d="M512 485.12l-290.432-338.368c-21.504-24.96-55.936-24.96-77.44 0a71.04 71.04 0 0 0 0 90.24L465.536 611.2a55.552 55.552 0 0 0 7.04 10.048A49.728 49.728 0 0 0 512 640c14.08 0 28.544-5.952 39.488-18.688 2.752-3.2 5.12-6.4 7.04-10.048l321.344-374.336c10.56-12.288 16.064-28.672 16.064-45.056 0-16.384-5.44-32.768-16-45.056-21.504-25.088-55.936-25.088-77.44 0L512 485.12z"  horiz-adv-x="1024" />
      
      <glyph glyph-name="qingxie" unicode="&#58946;" d="M394.688 768a32 32 0 0 0 32 32H768a32 32 0 0 0 0-64H426.688a32 32 0 0 0-32 32zM224 0a32 32 0 0 0 32 32h341.312a32 32 0 0 0 0-64H256a32 32 0 0 0-32 32zM627.2 799.808a32 32 0 0 0 22.272-39.36L436.224-8.576a32 32 0 1 0-61.632 17.088L587.84 777.6a32 32 0 0 0 39.36 22.272z"  horiz-adv-x="1024" />
      
      <glyph glyph-name="xiangmufuhao" unicode="&#58945;" d="M96 704a32 32 0 0 0 32 32h128a32 32 0 0 0 0-64H128a32 32 0 0 0-32 32zM96 384a32 32 0 0 0 32 32h128a32 32 0 0 0 0-64H128a32 32 0 0 0-32 32zM96 128a32 32 0 0 0 32 32h128a32 32 0 0 0 0-64H128a32 32 0 0 0-32 32zM416 384a32 32 0 0 0 32 32h469.312a32 32 0 1 0 0-64H448a32 32 0 0 0-32 32zM416 128a32 32 0 0 0 32 32h469.312a32 32 0 1 0 0-64H448a32 32 0 0 0-32 32zM416 704a32 32 0 0 0 32 32h469.312a32 32 0 1 0 0-64H448a32 32 0 0 0-32 32z"  horiz-adv-x="1024" />
      
      <glyph glyph-name="lianjie" unicode="&#58944;" d="M876.864 747.264c-71.936 71.936-189.248 68.096-261.952-4.608L449.024 576.768a32 32 0 1 1 45.248-45.248l165.952 165.888c49.472 49.536 126.208 49.792 171.392 4.608 45.184-45.248 44.992-121.984-4.544-171.52L661.12 364.672a32 32 0 1 1 45.248-45.248l165.952 165.952c72.704 72.64 76.544 189.952 4.544 261.952zM365.76 447.872a32 32 0 0 1-45.248 0L154.56 281.92c-71.488-71.488-83.712-186.432-4.032-262.4 77.824-74.304 188.8-67.52 261.44 5.056l165.888 165.888a32 32 0 1 1-45.248 45.248L366.72 69.824c-49.6-49.664-120.896-52.736-171.968-4.032-49.216 46.976-45.568 120.192 5.12 170.88l165.952 165.952a32 32 0 0 1 0 45.248zM662.784 534.464a32 32 0 0 1-45.248 0.32l-262.72-259.2a32 32 0 0 1 44.992-45.568l262.656 259.2a32 32 0 0 1 0.32 45.248z"  horiz-adv-x="1024" />
      
      <glyph glyph-name="shanchuxian" unicode="&#58943;" d="M74.688 384a32 32 0 0 0 32 32h810.624a32 32 0 1 0 0-64H106.688a32 32 0 0 0-32 32zM289.088 728.128C327.68 797.824 406.72 842.752 512 842.752c106.752 0 178.752-47.872 223.36-95.424a337.792 337.792 0 0 0 58.624-86.656 185.28 185.28 0 0 0 3.584-8.384l0.256-0.64 0.064-0.192v-0.064h0.064L768 640l29.952 11.264a32 32 0 0 0-59.904-22.528v0.064l-0.384 0.96a226.048 226.048 0 0 1-10.56 21.248 273.536 273.536 0 0 1-38.4 52.48C653.248 741.312 597.184 778.752 512 778.752c-86.72 0-141.696-36.096-166.912-81.6-25.344-45.824-24.256-107.84 14.72-167.616a32 32 0 1 0-53.632-34.944c-50.048 76.8-55.424 164.16-17.088 233.536z m448.96-99.328zM673.536 282.816a32 32 0 0 0 44.288-9.344c51.136-78.464 49.408-166.272 8.512-234.496-40.704-67.84-118.528-113.664-214.336-113.664-96.832 0-168.448 48.576-214.656 94.72a420.928 420.928 0 0 0-65.152 84.736 246.912 246.912 0 0 0-3.456 6.272l-0.896 1.792-0.32 0.576-0.064 0.128v0.128l27.776 13.952-27.84-14.016a32 32 0 0 0 57.216 28.736l0.064-0.128 0.576-1.088c0.512-0.96 1.344-2.56 2.56-4.608a357.12 357.12 0 0 1 54.848-71.232c39.168-39.168 95.488-75.968 169.344-75.968 74.88 0 131.072 35.264 159.424 82.56 28.16 47.04 30.72 108.544-7.232 166.656a32 32 0 0 0 9.344 44.288z m-388.928-140.48L256 128l28.608 14.336z"  horiz-adv-x="1024" />
      
      <glyph glyph-name="youxufuhao" unicode="&#58942;" d="M192 729.472c14.144 0 25.6-11.456 25.6-25.6v-192a25.6 25.6 0 1 0-51.2 0v192c0 14.144 11.52 25.6 25.6 25.6zM102.4 511.872c0 14.144 11.52 25.6 25.6 25.6h128a25.6 25.6 0 0 0 0-51.2H128a25.6 25.6 0 0 0-25.6 25.6zM102.4 78.144c0 14.144 11.52 25.6 25.6 25.6h128a25.6 25.6 0 0 0 0-51.2H128a25.6 25.6 0 0 0-25.6 25.6zM128 227.456l-18.112 18.112a25.6 25.6 0 0 1 36.224-36.224l-0.064-0.064 0.256 0.256a84.672 84.672 0 0 0 28.032 17.92 32.96 32.96 0 0 0 19.456 2.176c4.8-1.216 11.84-4.736 19.584-16.384m0 0c4.16-6.272 4.928-13.568-0.576-25.216-5.888-12.544-17.664-26.56-32.768-40.32a384.64 384.64 0 0 0-59.136-43.968l-4.288-2.56-1.024-0.64-0.32-0.192a25.6 25.6 0 0 1 25.408-44.48L128 78.144c12.672-22.272 12.8-22.208 12.8-22.208l0.064 0.064 0.448 0.256 1.408 0.832 4.992 3.008a436.032 436.032 0 0 1 66.88 49.792c16.96 15.552 34.496 34.88 44.544 56.32 10.496 22.336 13.952 49.728-3.2 75.456-13.568 20.352-30.528 32.832-49.728 37.632a83.712 83.712 0 0 1-49.92-3.84 135.616 135.616 0 0 1-42.432-26.24 110.72 110.72 0 0 1-2.752-2.432l-0.768-0.832-0.256-0.256-0.128-0.064v-0.064l18.048-18.112M213.312 718.08a25.6 25.6 0 0 0-7.104-35.456l-64-42.688a25.6 25.6 0 0 0-28.416 42.624l64 42.624a25.6 25.6 0 0 0 35.52-7.04zM416 384a32 32 0 0 0 32 32h469.312a32 32 0 1 0 0-64H448a32 32 0 0 0-32 32zM416 85.248a32 32 0 0 0 32 32h469.312a32 32 0 1 0 0-64H448a32 32 0 0 0-32 32zM416 682.752a32 32 0 0 0 32 32h469.312a32 32 0 1 0 0-64H448a32 32 0 0 0-32 32z"  horiz-adv-x="1024" />
      
      <glyph glyph-name="jiacu" unicode="&#58941;" d="M202.688 810.752a32 32 0 0 0 32 32H512a244.992 244.992 0 0 0 244.672-245.312A244.992 244.992 0 0 0 512 352H234.688a32 32 0 0 0-32 32V810.752z m64-32v-362.688H512a180.992 180.992 0 0 1 180.672 181.376A180.992 180.992 0 0 1 512 778.752H266.688zM202.688 384a32 32 0 0 0 32 32h363.328a244.992 244.992 0 0 0 244.672-245.312 244.992 244.992 0 0 0-244.672-245.376H234.688a32 32 0 0 0-32 32V384z m64-32v-362.688h331.328a180.992 180.992 0 0 1 180.672 181.376A180.992 180.992 0 0 1 598.016 352H266.688z"  horiz-adv-x="1024" />
      
      <glyph glyph-name="a-minuscircle1" unicode="&#59012;" d="M504.7808-127.2832c278.7328 0 505.0368 229.0688 505.0368 511.488C1009.8176 666.624 783.5136 896 504.832 896 225.9968 896 0 666.624 0 384.2048s225.9968-511.488 504.7808-511.488z m0 88.4224c-230.8608 0-417.536 189.1328-417.536 423.0656 0 233.8816 186.6752 423.1168 417.536 423.1168 230.8096 0 417.4848-189.2352 417.4848-423.1168 0-233.9328-186.6752-423.0656-417.4848-423.0656zM309.1456 342.3744h390.8096c25.856 0 44.2368 15.616 44.2368 40.6016 0 25.6-17.408 41.6256-44.2368 41.6256H309.1456c-26.5728 0-44.2368-16.0256-44.2368-41.6256 0-24.9856 18.3808-40.6016 44.2368-40.6016z"  horiz-adv-x="1024" />
      
      <glyph glyph-name="a-pluscircle2" unicode="&#59013;" d="M504.7808-127.2832c278.7328 0 505.0368 229.0688 505.0368 511.488C1009.8176 666.624 783.5136 896 504.832 896 225.9968 896 0 666.624 0 384.2048s225.9968-511.488 504.7808-511.488z m0 88.4224c-230.8608 0-417.536 189.1328-417.536 423.0656 0 233.8816 186.6752 423.1168 417.536 423.1168 230.8096 0 417.4848-189.2352 417.4848-423.1168 0-233.9328-186.6752-423.0656-417.4848-423.0656zM278.4256 384.1536c0-23.552 16.7424-40.2944 40.8064-40.2944H463.872v-147.0464c0-24.064 16.896-41.2672 40.1408-41.2672 23.9104 0 40.8064 16.896 40.8064 41.2672v147.0464h145.1008c23.7568 0 40.8064 16.7424 40.8064 40.2944 0 24.576-16.7424 41.728-40.8064 41.728h-145.1008V572.5184c0 24.4736-16.896 41.6768-40.8064 41.6768-23.2448 0-40.1408-17.2032-40.1408-41.6768v-146.6368H319.232c-24.064 0-40.8576-17.152-40.8576-41.728z"  horiz-adv-x="1024" />
      
      <glyph glyph-name="zhongzhi" unicode="&#59014;" d="M745.0624 682.3424l-28.9792-34.7648c-16.384-19.6096-3.584-48.9472 22.272-51.3536l226.7136-20.4288c29.9008-2.6624 52.992 24.9344 44.1344 52.8384l-67.7888 210.944c-7.7824 24.1664-40.0384 30.1568-56.32 10.496l-44.9536-53.8624C723.968 879.616 574.5152 914.944 422.4512 886.016 207.2576 845.1584 37.9392 672.8192 5.9904 462.08-42.3936 144.64 209.7152-128 527.2064-128c218.4192 0 411.648 130.048 490.496 323.6352 12.6464 31.0784 6.5024 68.352-20.6848 88.7808-42.5984 32.1024-100.3008 13.824-117.9136-30.9248-65.8432-167.5776-251.136-270.0288-444.4672-224.4096-142.2848 33.7408-253.3376 149.5552-278.2208 289.6896-40.96 230.7584 140.8512 430.848 370.8416 430.848a381.7984 381.7984 0 0 0 217.8048-67.2768z"  horiz-adv-x="1024" />
      
      <glyph glyph-name="Frame-1" unicode="&#59011;" d="M33.589248 572.2624l92.8768-19.968a27.392 27.392 0 1 0-10.8032-53.76l-93.3376 19.456a27.648 27.648 0 0 0-22.016 31.232 27.3408 27.3408 0 0 0 33.28 23.04z m91.136 156.3648l67.072-67.1744a27.8016 27.8016 0 0 0 0-39.0656 26.88 26.88 0 0 0-38.912 0l-67.072 67.1744a26.9312 26.9312 0 0 0 0 39.0656 26.88 26.88 0 0 0 38.912 0z m171.3664 60.1088l19.968-92.6208a28.3136 28.3136 0 0 0-21.504-32.8704 28.0064 28.0064 0 0 0-33.1264 21.6576l-19.968 92.3648a27.9552 27.9552 0 0 0 54.6304 11.4688zM880.386048 540.16c12.1856-15.4112 33.5872-57.7536 50.5856-90.9312 27.8016-52.0704 70.2464-132.096 82.9952-201.2672 24.9344-95.232 3.84-174.7456-69.1712-247.9104-45.3632-45.312-99.1744-72.8576-154.9312-79.6672 17.408 11.9808 34.0992 25.856 49.8176 41.5744 85.9136 85.9136 111.8208 183.3472 83.456 295.168-13.568 78.08-59.4432 164.9664-87.3984 216.8832-8.3456 16.0256-17.2544 33.4848-26.0096 49.664a42.5984 42.5984 0 0 0 16.5376 23.9104c17.664 13.7216 39.8848 11.008 54.1184-7.3728z m-306.0736 75.264l52.6848-52.736a90.624 90.624 0 0 1-11.4688-44.544l8.192-19.3024-113.3568 113.6128a42.6496 42.6496 0 0 0 63.9488 2.9696zM437.198848 0.3584c114.688-114.432 261.2736-103.3216 364.3392-0.3072 73.1648 73.216 94.208 152.6272 69.3248 247.8592-12.9024 69.2224-55.3984 149.248-82.944 201.3184-17.2544 33.1776-38.5024 75.52-50.688 90.9824-14.336 18.3808-36.4032 21.0944-54.272 7.3728-19.712-15.0528-22.3232-37.2224-11.4688-67.3792l42.752-112.384c3.9424-10.3936 3.0208-16.1792-0.7168-19.8656-4.2496-4.096-10.1376-5.0688-18.0736 3.072L431.003648 615.424a42.496 42.496 0 0 1-60.928 0.1536 42.3936 42.3936 0 0 1 0.1024-61.1328l195.5328-195.3792a227.328 227.328 0 0 1-25.4976-14.2336l-225.792 225.792a42.3424 42.3424 0 0 1-60.9792 0 42.3424 42.3424 0 0 1 0-60.928l223.0784-223.1296c-6.4512-7.68-12.5952-15.616-18.3808-23.552L253.698048 467.456a42.496 42.496 0 0 1-61.0816 0.1536 42.8544 42.8544 0 0 1 0.1536-60.9792l221.5424-221.44a228.352 228.352 0 0 1-9.3184-30.72l-154.2656 154.1632a42.3936 42.3936 0 0 1-61.1328 0.256 43.1616 43.1616 0 0 1 0-61.2352l247.6032-247.296z"  horiz-adv-x="1024" />
      
      <glyph glyph-name="Frame4" unicode="&#59010;" d="M217.6 0V753.92c0 21.9136 16.64 39.68 37.2224 39.68h520.7552c20.5824 0 37.2224-17.7664 37.2224-39.68V0l-297.6256 164.1472L217.6 0zM776.192 726.9376c0 7.0144-4.864 9.5232-7.0144 9.5232H280.4224c-2.1504 0-6.9632-2.56-6.9632-9.5232v-675.5328l237.8752 134.1952 3.2256 1.536c7.68 3.1232 16.384 2.56 23.7056-1.536l237.8752-134.144V726.8864z m55.808-723.968a28.672 28.672 0 0 0-13.7216-24.576 27.392 27.392 0 0 0-27.648-0.4608l-265.8304 150.016-265.7792-150.016a27.392 27.392 0 0 0-27.648 0.4608 28.672 28.672 0 0 0-13.7728 24.576V726.9376C217.6 761.9584 244.0704 793.6 280.4224 793.6h488.7552c36.352 0 62.8224-31.6416 62.8224-66.6624v-723.968z"  horiz-adv-x="1024" />
      
      <glyph glyph-name="shoucang2" unicode="&#58933;" d="M166.4 704a76.8 76.8 0 0 0 76.8 76.8h537.6a76.8 76.8 0 0 0 76.8-76.8V-25.6a38.4 38.4 0 0 0-56.064-34.0992L512 90.0096l-289.5872-149.7088A38.4 38.4 0 0 0 166.4-25.6V704z m614.4 0H243.2v-666.5216l251.1872 129.8944a38.4 38.4 0 0 0 35.2256 0l251.1872-129.8944V704z"  horiz-adv-x="1024" />
      
      <glyph glyph-name="eye" unicode="&#59046;" d="M950.166974 383.831959a70.241149 70.241149 0 0 1-7.813907 32.936041C882.950564 530.195693 772.463589 602.873436 767.758441 605.814154 688.443077 657.990893 602.238031 684.541374 512 684.793436v0.588144c-90.406071-0.168041-176.443077-26.634502-255.842462-78.979282-4.453087-2.856698-115.360164-75.618462-174.510605-188.962134a69.905067 69.905067 0 0 1-7.897928-32.936041H73.749005c-0.252062-18.820595 7.477826-32.768 7.897928-33.272123C140.881395 237.804307 251.536411 165.042544 256.157538 162.185846c79.399385-52.260759 165.436389-78.6432 255.758442-78.895261v-0.504123c90.406071 0.08402 176.527098 26.634502 255.926482 78.895261 4.621129 2.940718 115.276144 75.618462 174.594625 189.046154a69.905067 69.905067 0 0 1 7.813908 33.188103zM512 219.571856a164.344123 164.344123 0 1 0 0 328.772267 164.344123 164.344123 0 0 0 0-328.772267z"  horiz-adv-x="1024" />
      
      <glyph glyph-name="zan" unicode="&#58952;" d="M131.84 426.666667l35.328-405.333334H213.333333V426.666667h-81.493333z m-84.992-7.424A85.333333 85.333333 0 0 0 131.84 512H213.333333a85.333333 85.333333 0 0 0 85.333334-85.333333v-405.333334a85.333333 85.333333 0 0 0-85.333334-85.333333H167.253333a85.333333 85.333333 0 0 0-85.077333 77.909333l42.496 3.754667-42.496-3.754667-35.242667 405.333334zM534.101333 779.52c8.448 60.928 62.549333 64 111.701334 37.290667 32.341333-17.578667 65.28-48.213333 84.138666-79.701334 19.797333-33.109333 25.856-73.472 23.04-117.76-1.706667-29.354667-6.997333-51.370667-20.736-97.28l-0.597333-2.048-2.389333-7.68h174.336a85.333333 85.333333 0 0 0 84.309333-98.986666l-2.133333-9.557334-114.602667-405.674666a85.333333 85.333333 0 0 0-82.090667-62.122667H426.666667a85.333333 85.333333 0 0 0-85.333334 85.333333V439.978667c0 34.474667 20.650667 65.365333 51.712 80.042666 47.104 22.186667 86.869333 50.176 103.68 78.336 12.202667 20.309333 21.930667 52.565333 28.416 91.477334 4.608 27.306667 7.082667 54.016 8.021334 75.605333l0.085333 2.133333c0 4.266667 0.256 7.765333 0.853333 11.946667z m82.432-44.970667l-1.109333-13.482666c-1.450667-14.506667-3.413333-29.781333-6.144-45.397334-8.106667-48.469333-20.48-89.856-39.338667-121.173333-27.989333-46.677333-79.274667-82.773333-140.544-111.701333-1.877333-0.853333-2.730667-2.218667-2.730666-2.816v-418.645334h362.410666l114.517334 405.674667H672a42.666667 42.666667 0 0 0-40.874667 54.869333l18.773334 62.634667 0.426666 1.365333c12.032 40.362667 16.213333 58.026667 17.578667 78.677334 1.706667 28.672-1.877333 53.248-11.093333 68.693333a143.786667 143.786667 0 0 1-32.170667 35.328l-8.106667 5.973333z"  horiz-adv-x="1024" />
      
      <glyph glyph-name="queren" unicode="&#59006;" d="M1048.96 384c0-281.92-226.56-511.616-505.088-511.616C265.536-127.616 38.976 102.08 38.976 384 39.04 666.24 265.6 895.744 543.872 895.744 822.4 895.744 1048.96 666.24 1048.96 384z m-354.688 195.136l-205.824-331.264L390.4 370.944c-11.52 14.528-22.976 20.096-37.504 20.096a44.032 44.032 0 0 1-43.648-44.48c0-11.968 4.16-22.912 13.056-33.92l122.56-149.12c13.056-16.32 27.008-24.384 44.928-24.384 17.664 0 32.64 8.832 43.328 24.832l233.344 365.76c6.592 10.176 11.392 21.888 11.392 32.576 0 24.832-21.376 42.048-44.864 42.048-15.232 0-28.544-8.768-38.656-25.216z"  horiz-adv-x="1088" />
      
      <glyph glyph-name="queren1" unicode="&#59007;" d="M1041.92 384.192c0-281.856-226.56-511.552-505.088-511.552C258.56-127.36 32 102.4 32 384.192 32 666.432 258.56 896 536.832 896c278.592 0 505.152-229.568 505.152-511.808z m-354.624 195.2l-205.824-331.264L383.36 371.2c-11.584 14.528-23.04 20.096-37.504 20.096a44.032 44.032 0 0 1-43.648-44.48c0-11.968 4.16-22.912 12.992-33.92l122.56-149.12c13.056-16.32 27.072-24.448 44.992-24.448 17.664 0 32.64 8.896 43.328 24.96l233.344 365.696c6.592 10.176 11.392 21.824 11.392 32.512 0 24.896-21.376 42.112-44.928 42.112-15.232 0-28.48-8.768-38.592-25.216z"  horiz-adv-x="1088" />
      
      <glyph glyph-name="queren2" unicode="&#59008;" d="M1041.92 384.192c0-281.856-226.56-511.552-505.088-511.552C258.56-127.36 32 102.4 32 384.192 32 666.432 258.56 896 536.832 896c278.592 0 505.152-229.568 505.152-511.808z m-354.624 195.2l-205.824-331.264L383.36 371.2c-11.584 14.528-23.04 20.096-37.504 20.096a44.032 44.032 0 0 1-43.648-44.48c0-11.968 4.16-22.912 12.992-33.92l122.56-149.12c13.056-16.32 27.072-24.448 44.992-24.448 17.664 0 32.64 8.896 43.328 24.96l233.344 365.696c6.592 10.176 11.392 21.824 11.392 32.512 0 24.896-21.376 42.112-44.928 42.112-15.232 0-28.48-8.768-38.592-25.216z"  horiz-adv-x="1088" />
      
      <glyph glyph-name="queren3" unicode="&#59009;" d="M1041.92 384.192c0-281.856-226.56-511.552-505.088-511.552C258.56-127.36 32 102.4 32 384.192 32 666.432 258.56 896 536.832 896c278.592 0 505.152-229.568 505.152-511.808z m-354.624 195.2l-205.824-331.264L383.36 371.2c-11.584 14.528-23.04 20.096-37.504 20.096a44.032 44.032 0 0 1-43.648-44.48c0-11.968 4.16-22.912 12.992-33.92l122.56-149.12c13.056-16.32 27.072-24.448 44.992-24.448 17.664 0 32.64 8.896 43.328 24.96l233.344 365.696c6.592 10.176 11.392 21.824 11.392 32.512 0 24.896-21.376 42.112-44.928 42.112-15.232 0-28.48-8.768-38.592-25.216z"  horiz-adv-x="1088" />
      
      <glyph glyph-name="youhuiquan" unicode="&#59004;" d="M437.888-107.52a35.712 35.712 0 0 0-25.408 10.688l-104.832 104.896a35.456 35.456 0 0 0-0.832 49.92 85.184 85.184 0 0 1-2.048 118.784 85.568 85.568 0 0 1-118.784 2.048 36.224 36.224 0 0 0-49.984 0.832L31.168 284.544a36.608 36.608 0 0 0 0 51.2L560.768 864.96a36.608 36.608 0 0 0 51.2 0l104.448-104.448a36.608 36.608 0 0 0 0-51.2 85.568 85.568 0 0 1 0-121.28c32.32-32.32 88.896-32.32 121.216 0a35.584 35.584 0 0 0 50.816 0l104.448-104.448a36.608 36.608 0 0 0 0-51.2l-529.6-529.216a36.352 36.352 0 0 0-25.408-10.624z m-57.344 144.64l57.344-57.344 478.4 478.4-56.128 56.576a154.816 154.816 0 0 0-83.136-23.808c-42.24 0-81.92 16.384-111.808 46.336a158.336 158.336 0 0 0-22.528 194.944l-56.512 56.512-478.464-478.784 57.344-57.344a157.184 157.184 0 0 0 190.464-24.576 157.376 157.376 0 0 0 24.96-190.912zM369.024 325.12a35.648 35.648 0 0 0-25.408 10.624 36.608 36.608 0 0 0 0 51.2l165.888 165.888a36.608 36.608 0 0 0 51.2 0 36.608 36.608 0 0 0 0-51.2L394.88 335.744a38.08 38.08 0 0 0-25.792-10.688z m120-120.064a35.584 35.584 0 0 0-25.344 10.624 36.544 36.544 0 0 0 0 51.2l165.888 165.888a36.608 36.608 0 0 0 51.2 0 36.608 36.608 0 0 0 0-51.2L514.88 215.68a35.456 35.456 0 0 0-25.856-10.624z"  horiz-adv-x="1024" />
      
      <glyph glyph-name="zhekou" unicode="&#59005;" d="M704 489.984V640a64 64 0 0 1-64 64H489.984c-21.76 0-42.752-8.704-58.176-24.128L172.288 420.416a64 64 0 0 1 0-90.496l170.56-170.496a45.696 45.696 0 0 1 32.32-13.376v-64c-29.056 0-56.96 11.52-77.568 32.128L127.04 284.672a128 128 0 0 0-22.4 30.08l-5.312 11.456a128.064 128.064 0 0 0-4.288 86.08l4.288 11.904a128 128 0 0 0 19.328 32.192l8.384 9.28L386.56 725.12a146.304 146.304 0 0 0 88.96 42.112L490.048 768H640a128 128 0 0 0 128-128v-150.016c0-38.784-15.424-75.968-42.88-103.424l-272.384-272.384a109.696 109.696 0 0 0-77.568-32.128v64c12.16 0 23.744 4.8 32.32 13.44l272.384 272.32c15.424 15.424 24.128 36.352 24.128 58.24zM795.264 453.376V603.392a32 32 0 0 0 64 0v-150.016c0-47.296-18.816-92.608-52.288-126.08l-272.384-272.384a32 32 0 1 0-45.248 45.248l272.384 272.384 7.68 8.384c16.64 20.352 25.856 45.952 25.856 72.448zM566.848 525.632a41.152 41.152 0 1 1 0 82.368 41.152 41.152 0 0 1 0-82.368z"  horiz-adv-x="1024" />
      
      <glyph glyph-name="gengduo1" unicode="&#59002;" d="M530.56 88.96c10.688 0 19.84 4.032 27.392 11.52l259.776 251.904c9.6 9.472 14.336 19.456 14.336 31.488a43.52 43.52 0 0 1-14.528 31.808l-259.84 251.968a36.736 36.736 0 0 1-27.136 11.328 39.104 39.104 0 0 1-39.552-39.296c0-10.496 4.416-20.736 12.16-28.608l250.112-241.408V398.72l-250.176-241.792a40.768 40.768 0 0 1-12.16-28.736c0-21.76 17.472-39.232 39.616-39.232zM231.552 88.96c10.688 0 19.84 4.032 27.392 11.52l259.776 251.904c9.6 9.472 14.336 19.456 14.336 31.488a43.264 43.264 0 0 1-14.528 31.808L258.752 667.648a36.736 36.736 0 0 1-27.2 11.328 39.168 39.168 0 0 1-39.552-39.296c0-10.496 4.416-20.736 12.16-28.608l250.112-241.408V398.72L204.16 156.928a40.768 40.768 0 0 1-12.096-28.736c0-21.76 17.472-39.232 39.552-39.232z"  horiz-adv-x="1024" />
      
      <glyph glyph-name="tishi1" unicode="&#59003;" d="M511.936 810.496a426.688 426.688 0 1 1 0-853.376A426.688 426.688 0 0 1 512 810.496z m0-780.928a354.368 354.368 0 0 0 0 708.544 354.368 354.368 0 0 0 0-708.544zM457.28 182.848a54.848 54.848 0 1 1 109.632 0 54.848 54.848 0 0 1-109.632 0z m27.392 128h54.848A9.152 9.152 0 0 1 548.672 320V630.848A9.152 9.152 0 0 1 539.52 640h-54.848a9.152 9.152 0 0 1-9.152-9.152V320c0-5.056 4.16-9.152 9.152-9.152z"  horiz-adv-x="1024" />
      
      <glyph glyph-name="a-PurchaseCount" unicode="&#58995;" d="M412.532364 62.789818a58.88 58.88 0 0 0-59.345455-59.345454 59.136 59.136 0 0 0-59.578182 59.345454c0 33.047273 26.577455 59.345455 59.578182 59.345455 33.117091 0 59.345455-26.298182 59.345455-59.345455z m325.003636 0a59.066182 59.066182 0 0 0-59.578182-59.345454 59.298909 59.298909 0 0 0-59.764363 59.345454 59.345455 59.345455 0 0 0 59.787636 59.345455c33.093818 0 59.578182-26.298182 59.578182-59.345455zM236.357818 661.178182l6.749091-45.405091h342.970182a188.602182 188.602182 0 0 1-2.397091-30.906182c0-124.183273 101.701818-225.745455 225.745455-225.745454 1.396364 0 2.792727 0.023273 4.142545 0.232727-12.264727-33.512727-37.166545-52.898909-78.126545-52.898909h-447.301819l6.237091-41.076364c2.885818-19.968 14.685091-32.628364 33.442909-32.628364h407.202909c14.173091 0 27.042909-11.124364 27.04291-27.22909 0-15.895273-12.869818-27.322182-27.04291-27.322182H320.372364c-50.548364 0-77.242182 30.557091-84.526546 80.407272L179.479273 643.956364h-116.363637c-15.476364 0-28.206545 13.102545-28.206545 28.741818 0 15.592727 12.730182 28.765091 28.206545 28.765091h124.16c34.583273 0 45.358545-13.568 49.082182-40.261818zM989.090909 584.936727c0-98.210909-82.036364-179.665455-179.618909-179.665454-98.304 0-179.665455 80.942545-179.665455 179.665454 0 98.257455 81.361455 179.618909 179.665455 179.618909 98.536727 0 179.618909-81.128727 179.618909-179.618909z m-201.937454 91.717818v-69.46909h-69.492364c-13.265455 0-22.341818-8.866909-22.341818-22.295273 0-13.661091 9.169455-22.272 22.341818-22.272h69.492364v-69.888c0-13.102545 8.890182-21.992727 22.341818-21.992727 13.637818 0 22.248727 8.890182 22.248727 21.992727v69.888h69.585455c13.125818 0 22.225455 8.610909 22.225454 22.272 0 13.428364-9.099636 22.295273-22.202182 22.295273h-69.608727V676.654545c0 13.032727-8.610909 22.272-22.272 22.272-13.428364 0-22.318545-9.378909-22.318545-22.272z"  horiz-adv-x="1024" />
      
      <glyph glyph-name="a-PlaceOrdersin100horseStore" unicode="&#58996;" d="M61.998545 732.276364c0-16.989091 14.056727-31.278545 31.162182-31.278546h128.512L283.927273 281.949091c8.052364-54.225455 37.538909-87.458909 93.323636-87.458909H835.258182a29.789091 29.789091 0 0 1 29.858909 29.719273c0 17.524364-14.196364 29.602909-29.858909 29.602909H385.489455c-20.712727 0-33.745455 13.777455-36.933819 35.514181l-6.865454 44.660364h494.010182c57.088 0 85.946182 33.559273 94.254545 89.134546l30.417455 198.260363c0.651636 4.794182 1.629091 11.264 1.629091 14.941091 0 20.317091-14.405818 34.071273-38.772364 34.071273H291.933091l-7.447273 49.384727c-4.119273 29.021091-16.011636 43.752727-54.225454 43.752727H93.160727c-17.105455 0-31.162182-14.312727-31.162182-31.255272z m285.742546-663.319273c0-36.072727 29.323636-64.535273 65.768727-64.535273 36.584727 0 65.536 28.485818 65.536 64.535273 0 35.956364-28.951273 64.535273-65.536 64.535273-36.445091 0-65.768727-28.578909-65.768727-64.535273z m358.469818 0c0-36.072727 29.509818-64.535273 66.024727-64.535273 36.538182 0 65.768727 28.485818 65.768728 64.535273 0 35.956364-29.207273 64.535273-65.768728 64.535273-36.514909 0-66.024727-28.578909-66.024727-64.535273z"  horiz-adv-x="1024" />
      
      <glyph glyph-name="a-CreateanAccount" unicode="&#58997;" d="M599.272727 359.330909c-41.890909-19.665455-59.322182-56.948364-59.322182-101.096727v-155.694546c0-10.007273 0.535273-19.502545 1.745455-28.392727H132.212364c-46.196364 0-74.216727 22.272-74.216728 58.600727 0 110.801455 139.985455 263.330909 363.124364 263.330909 67.584 0 127.534545-14.010182 178.152727-36.770909z m-5.003636 304.267636c0-107.287273-78.475636-190.836364-172.869818-190.836363-94.138182 0-172.590545 83.549091-172.590546 190.231273C248.785455 767.069091 327.912727 849.454545 421.399273 849.454545c93.672727 0 172.869818-81.152 172.869818-185.856zM804.840727 356.957091c25.367273-9.402182 98.071273-34.792727 124.974546-45.568 26.856727-10.821818 36.189091-26.693818 36.189091-53.946182v-155.694545c0-79.825455-46.126545-110.545455-165.864728-178.362182a40.494545 40.494545 0 0 0-38.283636 0c-119.272727 67.84-165.585455 98.536727-165.585455 178.385454v155.694546c0 27.229091 9.309091 43.054545 36.212364 53.922909 26.484364 10.775273 99.234909 35.886545 122.507636 44.404364a74.007273 74.007273 0 0 0 49.850182 1.163636z m52.061091-121.832727l-102.632727-141.684364-50.967273 55.714909a29.323636 29.323636 0 0 1-21.550545 9.425455c-15.220364 0-28.020364-11.473455-28.020364-28.229819 0-6.749091 2.792727-14.731636 8.005818-20.48l71.633455-78.196363c5.678545-6.493091 14.778182-9.541818 22.434909-9.541818 9.634909 0 18.478545 4.096 23.365818 10.542545l123.415273 170.426182c4.026182 5.376 6.050909 11.450182 6.050909 16.616727 0 15.616-13.102545 27.880727-28.183273 27.880727-10.053818 0-18.432-4.817455-23.552-12.474181z"  horiz-adv-x="1024" />
      
      <glyph glyph-name="a-Sharelink" unicode="&#58998;" d="M977.454545 384.139636C977.454545 127.441455 768.535273-81.454545 511.860364-81.454545 255.464727-81.454545 46.545455 127.464727 46.545455 384.139636 46.545455 640.465455 255.464727 849.454545 511.860364 849.454545 768.558545 849.454545 977.454545 640.465455 977.454545 384.139636z m-493.847272 53.992728c20.340364-2.56 37.562182-10.961455 50.432-23.505455 36.608-36.584727 31.557818-85.364364-15.266909-131.165091l-69.352728-69.585454c-45.288727-45.102545-93.323636-50.059636-129.954909-13.498182-36.887273 36.165818-32.930909 84.782545 13.102546 129.885091l50.199272 50.059636c-6.679273 16.128-7.68 43.426909-0.046545 66.117818l-84.340364-83.712c-66.210909-66.257455-71.051636-138.705455-12.869818-196.608 57.832727-57.553455 130.164364-52.852364 196.491637 13.265455l71.633454 70.958545c67.095273 66.909091 72.378182 139.962182 13.730909 197.608728-16.477091 17.338182-35.141818 28.532364-49.687273 31.464727-12.544-9.076364-28.183273-26.181818-34.071272-41.285818z m41.378909 152.017454l-71.540364-70.888727c-67.165091-66.909091-72.471273-140.264727-13.730909-197.888 16.407273-17.128727 35.141818-28.299636 49.617455-31.488 12.8 9.378909 28.229818 26.414545 34.048 41.588364-20.247273 2.513455-37.562182 10.961455-50.129455 23.435636-36.608 36.654545-31.837091 85.364364 14.964364 130.885818l69.352727 69.864727c45.637818 45.149091 93.416727 50.082909 129.978182 13.521455 37.166545-36.189091 33.28-84.782545-13.125818-129.908364l-50.199273-49.989818c6.702545-16.174545 7.749818-43.403636 0.349091-66.117818l84.340363 83.362909c65.908364 66.257455 70.749091 139.077818 12.637091 196.887273-57.902545 57.623273-130.164364 52.875636-196.561454-13.265455z"  horiz-adv-x="1024" />
      
      <glyph glyph-name="a-ReferaFriend" unicode="&#58999;" d="M593.175273 352.302545c-61.486545-49.594182-101.050182-125.463273-101.050182-209.803636 0-21.527273 2.56-42.472727 7.633454-62.464H119.342545c-45.312 0-72.797091 21.853091-72.79709 57.483636 0 108.683636 137.355636 258.327273 356.282181 258.327273 73.402182 0 137.658182-16.849455 190.347637-43.52z m-20.48 305.989819c0-105.239273-76.986182-187.229091-169.611637-187.229091-92.346182 0-169.332364 81.989818-169.332363 186.647272 0 102.097455 77.637818 182.923636 169.332363 182.923637 91.927273 0 169.611636-79.616 169.611637-182.341818zM977.454545 142.429091c0-117.573818-97.978182-215.156364-215.086545-215.156364-117.690182 0-214.807273 96.977455-214.807273 215.156364 0 117.643636 97.117091 215.04 214.807273 215.04 117.969455 0 215.086545-97.140364 215.086545-215.04zM735.883636 252.229818v-83.153454h-83.479272c-15.872 0-26.647273-10.635636-26.647273-26.717091 0-16.337455 10.961455-26.717091 26.647273-26.717091h83.479272v-83.595637c0-15.755636 10.379636-26.321455 26.461091-26.321454 16.360727 0 26.717091 10.565818 26.717091 26.321454V115.665455h83.269818c15.965091 0 26.600727 10.379636 26.600728 26.71709 0 16.081455-10.635636 26.717091-26.600728 26.717091h-83.269818v83.153455c0 15.592727-10.356364 26.670545-26.717091 26.670545-16.081455 0-26.461091-11.240727-26.461091-26.670545z"  horiz-adv-x="1024" />
      
      <glyph glyph-name="a-SubscribetoNewsletter" unicode="&#59000;" d="M207.778909 136.215273H815.941818c33.931636 0 54.877091 18.711273 54.877091 46.592 0 39.424-36.258909 73.076364-69.073454 105.658182-28.904727 29.346909-33.512727 90.181818-39.354182 145.873454-6.539636 131.048727-46.475636 224.884364-142.429091 257.861818C605.905455 742.306909 565.992727 779.636364 512 779.636364c-53.946182 0-93.858909-37.352727-107.985455-87.412364-95.976727-33.000727-135.842909-126.836364-142.382545-257.885091-5.911273-55.691636-10.449455-116.526545-39.377455-145.873454-33.093818-32.581818-69.073455-66.234182-69.073454-105.658182 0-27.880727 20.945455-46.592 54.597818-46.592zM512-11.636364c64.605091 0 111.010909 46.103273 116.829091 99.374546H395.170909C400.756364 34.466909 447.348364-11.636364 512-11.636364z"  horiz-adv-x="1024" />
      
      <glyph glyph-name="a-PurchaseAmount" unicode="&#59001;" d="M209.152 169.402182c-23.272727 0-38.912 15.639273-38.912 38.004363v73.37891c0 22.411636 15.639273 38.050909 38.912 38.050909h97.070545c23.04 0 38.935273-15.639273 38.935273-38.050909v-73.37891c0-22.341818-15.918545-38.004364-38.935273-38.004363h-97.047272zM46.545455 472.203636v91.368728h930.90909v-91.368728H46.545455z m124.997818-426.449454h680.657454C934.632727 45.777455 977.454545 88.529455 977.454545 169.890909V598.178909c0 81.361455-42.821818 124.066909-125.253818 124.066909H171.543273C89.367273 722.269091 46.545455 679.819636 46.545455 598.202182V169.890909c0-81.617455 42.821818-124.113455 124.997818-124.113454z"  horiz-adv-x="1024" />
      
      <glyph glyph-name="kefu1" unicode="&#58994;" d="M1010.944 628.1216v-368.0256c0-131.328-74.9056-208.896-205.7216-208.896h-315.392L323.072-101.12c-19.8656-18.432-32.8704-26.88-49.7664-26.88-24.576 0-39.0656 17.7664-39.0656 45.1584V51.2h-30.8224C76.1344 51.2 0 128.2048 0 260.096V628.1216C0 760.0128 74.5984 837.632 205.7216 837.632h599.5008c130.816 0 205.7216-77.824 205.7216-209.408zM662.016 444.7232c0-37.888 29.9008-68.352 67.072-68.352 36.9664 0 66.7648 30.5152 66.7648 68.352 0 37.5808-29.7984 67.9936-66.7648 67.9936-37.1712 0-67.072-30.4128-67.072-67.9936z m-223.5392 0c0-37.888 29.952-68.352 67.1232-68.352 36.9152 0 66.7648 30.5152 66.7648 68.352 0 37.5808-29.8496 67.9936-66.7648 67.9936-37.1712 0-67.072-30.4128-67.072-67.9936z m-223.4368 0c0-37.888 30.0544-68.352 67.3792-68.352 36.9152 0 66.7136 30.5152 66.7136 68.352 0 37.5808-29.7984 67.9936-66.7136 67.9936a67.584 67.584 0 0 1-67.3792-67.9936z"  horiz-adv-x="1024" />
      
      <glyph glyph-name="chuangjianzhanghu" unicode="&#58992;" d="M627.241514 351.204324l-10.876541-3.985297c-25.516973-9.326703-43.589189-24.188541-55.296-42.897297-37.306811 12.564757-80.093405 20.009514-127.778595 20.009513-200.205838 0-313.786811-131.929946-313.78681-207.346162 0-10.931892 5.31373-15.276973 20.147891-15.276973h404.120217v-26.319567c0-15.027892 1.107027-28.86573 3.51481-41.651892H152.354595c-71.846054 0-106.274595 23.247568-106.274595 73.063783 0 121.302486 150.417297 285.88973 387.182703 285.88973 73.672649 0 138.987243-15.913514 194.006486-41.513513zM624.916757 658.62573c0-116.459243-85.158054-210.252108-191.072865-210.252108s-191.29427 93.516108-191.29427 209.643243c0 113.553297 85.905297 205.990054 191.29427 205.990054 105.721081 0 191.072865-91.163676 191.072865-205.353514z m-311.904865-0.553514c0-80.453189 54.797838-141.699459 120.832-141.699459 66.144865 0 120.610595 61.882811 120.610594 142.252973 0 78.128432-54.299676 137.326703-120.610594 137.326702-66.200216 0-120.832-60.139243-120.832-137.880216zM830.214919 334.405189c24.686703-9.40973 95.42573-34.899027 121.579243-45.637189 26.153514-10.793514 35.231135-26.734703 35.231135-54.022919v-155.924757c0-79.955027-44.889946-110.730378-161.40454-178.646486-12.09427-7.140324-27.537297-5.701189-37.25146 0-116.071784 67.888432-161.127784 98.691459-161.127783 178.646486v155.924757c0 27.288216 9.077622 43.091027 35.231135 54.022919 25.766054 10.738162 96.588108 35.978378 119.22681 44.419459a70.130162 70.130162 0 0 0 48.51546 1.21773z m50.646486-122.022054l-99.909189-141.893189-49.539459 55.821838a28.146162 28.146162 0 0 1-21.005838 9.40973c-14.778811 0-27.260541-11.485405-27.260541-28.256865 0-6.780541 2.712216-14.751135 7.804541-20.48l69.687351-78.432865c5.811892-6.420757 14.391351-9.492757 21.863784-9.492757 9.631135 0 17.989189 4.096 22.72173 10.516757l120.361513 170.675892c3.653189 5.452108 5.618162 11.540757 5.618162 16.716108a27.675676 27.675676 0 0 1-27.398918 27.924757 27.205189 27.205189 0 0 1-22.943136-12.509406z"  horiz-adv-x="1024" />
      
      <glyph glyph-name="jifen" unicode="&#58993;" d="M905.035294 506.277647c24.455529-27.105882 38.128941-57.163294 38.128941-88.786823 0-31.683765-13.673412-61.741176-38.128941-88.786824 24.455529-27.105882 38.128941-57.103059 38.128941-88.786824 0-119.024941-193.054118-215.582118-431.164235-215.582117-238.170353 0-431.164235 96.557176-431.164235 215.642353 0 31.623529 13.613176 61.680941 38.128941 88.726588-24.515765 27.105882-38.128941 57.103059-38.128941 88.786824 0 31.623529 13.613176 61.680941 38.128941 88.726588-24.515765 27.105882-38.128941 57.163294-38.128941 88.786823C80.835765 714.089412 273.829647 810.586353 512 810.586353c238.110118 0 431.164235-96.557176 431.164235-215.582118 0-31.623529-13.673412-61.680941-38.128941-88.786823z m-58.368-47.164235C767.638588 410.503529 647.047529 379.422118 512 379.422118c-135.107765 0-255.698824 31.081412-334.727529 79.691294-13.251765-13.914353-20.359529-28.129882-20.35953-41.622588 0-62.704941 153.6-139.504941 355.087059-139.504942 201.487059 0 355.026824 76.8 355.026824 139.504942 0 13.492706-7.107765 27.708235-20.35953 41.562352z m0-177.573647c-79.028706-48.549647-199.619765-79.631059-334.667294-79.631059-135.107765 0-255.698824 31.081412-334.727529 79.631059-13.251765-13.854118-20.359529-28.069647-20.35953-41.562353 0-62.704941 153.6-139.504941 355.087059-139.504941 201.487059 0 355.026824 76.8 355.026824 139.444705 0 13.552941-7.107765 27.708235-20.35953 41.622589zM512 455.499294c201.487059 0 355.026824 76.8 355.026824 139.504941 0 62.644706-153.539765 139.504941-355.026824 139.504941-201.547294 0-355.087059-76.8-355.087059-139.504941 0-62.644706 153.6-139.504941 355.087059-139.504941z"  horiz-adv-x="1024" />
      
      <glyph glyph-name="zai100horseshangdianxiadan" unicode="&#58986;" d="M600.064-18.289778c0-43.235556-33.678222-77.368889-76.174222-77.368889-42.382222 0-76.487111 34.133333-76.487111 77.368889 0 43.093333 34.104889 77.368889 76.487111 77.368889 42.496 0 76.174222-34.275556 76.174222-77.368889z m417.28 0c0-43.235556-33.962667-77.368889-76.458667-77.368889a76.714667 76.714667 0 0 0-76.771555 77.368889 76.8 76.8 0 0 0 76.771555 77.368889c42.496 0 76.458667-34.275556 76.458667-77.368889zM373.902222 762.083556l8.533334-59.221334h442.026666a266.353778 266.353778 0 0 1-4.608-50.375111c0-7.025778 0.227556-13.937778 1.024-20.764444H392.675556l37.688888-261.12h577.536c4.778667 0 9.130667 0.654222 13.084445 1.877333 27.932444-9.386667 57.742222-14.364444 88.661333-14.364444 0.369778 0 0.768 0 1.137778 0.056888-16.896-37.376-47.815111-58.680889-96.113778-58.680888H440.632889l7.736889-53.560889c3.697778-26.055111 18.858667-42.552889 42.951111-42.552889h522.808889c18.204444 0 34.702222-14.506667 34.702222-35.498667 0-20.736-16.497778-35.640889-34.702222-35.640889H481.735111c-64.881778 0-99.157333 39.850667-108.544 104.874667L300.856889 739.555556H151.438222c-19.882667 0-36.209778 17.123556-36.209778 37.489777 0 20.337778 16.327111 37.518222 36.209778 37.518223h159.402667c44.430222 0 58.225778-17.692444 63.032889-52.48zM1338.311111 658.176c0-116.622222-110.364444-213.390222-241.720889-213.390222-132.323556 0-241.806222 96.170667-241.806222 213.390222 0 116.679111 109.511111 213.276444 241.806222 213.276444 132.608 0 241.749333-96.341333 241.749334-213.276444z m-271.758222 108.856889v-82.488889h-93.553778c-17.834667 0-30.037333-10.24-30.037333-26.453333 0-15.928889 12.316444-26.453333 30.037333-26.453334h93.553778v-82.944c0-15.644444 11.946667-26.168889 30.037333-26.168889 18.375111 0 29.952 10.524444 29.952 26.168889V631.608889H1220.266667c17.635556 0 29.895111 10.524444 29.895111 26.510222 0 16.213333-12.231111 26.453333-29.866667 26.453333h-93.696V767.004444c0 15.729778-11.605333 26.481778-29.980444 26.481778-18.090667 0-30.037333-10.865778-30.037334-26.481778z"  horiz-adv-x="1393" />
      
      <glyph glyph-name="liuxiapinglun" unicode="&#58987;" d="M896.802595 532.895135H185.427027c-35.950703 0-55.821838-19.788108-55.821838-56.236973V121.634595c0-35.812324 19.871135-56.292324 55.821838-56.292325h856.451459c35.950703 0 55.932541 20.48 55.932541 56.292325V418.677622l73.672649 74.060108c0.276757-3.487135 0.387459-7.140324 0.387459-10.848865V116.652973c0-77.408865-43.533838-120.00173-120.804324-120.00173H176.294054c-77.270486 0-120.804324 42.592865-120.804324 120.00173V481.888865c0 77.491892 43.533838 120.057081 120.804324 120.057081h789.227243l-68.746378-69.050811zM813.88627 278.002162l87.067676 39.161081L1268.736 686.495135l-61.716757 61.384649-367.256216-368.806054-40.932324-85.600865c-3.985297-9.049946 6.254703-19.289946 15.055567-15.498379zM1300.203243 718.045405l30.277189 30.830703c16.743784 17.103568 17.297297 38.912 1.300757 54.963892l-9.824865 10.018595c-14.446703 14.031568-37.362162 12.232649-52.832865-3.597838l-30.443243-29.972757 61.523027-62.214919zM661.974486 238.204541a61.024865 61.024865 0 0 1 0 121.994378 60.775784 60.775784 0 0 1-60.582054-60.858811 60.886486 60.886486 0 0 1 60.582054-61.135567zM477.820541 238.204541a60.886486 60.886486 0 0 1 60.582054 61.163243c0 33.570595-27.205189 60.858811-60.582054 60.858811-33.708973 0-60.886486-27.288216-60.886487-60.886487 0-33.792 27.177514-61.135568 60.886487-61.135567zM293.334486 238.204541a60.886486 60.886486 0 0 1 60.554379 61.163243c0 33.570595-27.177514 60.858811-60.554379 60.858811a60.803459 60.803459 0 0 1-60.85881-60.886487 60.886486 60.886486 0 0 1 60.85881-61.135567z"  horiz-adv-x="1411" />
      
      <glyph glyph-name="liuxiadaizhaopiandepinglun" unicode="&#58988;" d="M1353.285189 744.420324v-567.10227c0-95.176649-50.646486-145.297297-148.396973-145.297297H544.463568a287.162811 287.162811 0 0 1 41.513513 148.839784c0 18.515027-1.715892 36.642595-5.258378 54.188973 57.177946 44.336432 134.282378 71.320216 219.357405 71.320216 148.618378 0 272.992865-82.528865 310.188973-195.279568h90.084324c46.550486 0 72.704 24.38227 72.704 72.925406V737.916541c0 48.266378-26.153514 72.925405-72.704 72.925405h-801.21081c-47.353081 0-72.925405-24.659027-72.925406-72.925405v-263.472433a253.343135 253.343135 0 0 1-39.852973 2.988973c-13.616432 0-27.039135-0.940973-40.102054-3.044324V744.448c0 95.757838 50.729514 145.518703 148.120216 145.518703h810.509838c97.750486 0 148.396973-50.092973 148.396973-145.518703zM959.321946 553.928649c0-98.054919-70.157838-173.166703-159.245838-172.557838-89.309405 0.636541-159.107459 74.475243-159.467243 172.557838-0.276757 92.436757 70.351568 169.402811 159.467243 169.40281 88.89427 0 159.245838-76.938378 159.245838-169.375135zM523.014919 184.32c0-128.691892-107.215568-235.353946-235.077189-235.353946-129.107027 0-235.409297 106.080865-235.409298 235.353946 0 128.691892 106.30227 235.132541 235.409298 235.132541 128.802595 0 235.077189-106.163892 235.077189-235.132541z m-264.302703 120.057081v-90.969946H167.299459c-17.380324 0-29.225514-11.568432-29.225513-29.170162 0-17.574054 11.983568-29.197838 29.225513-29.197838h91.357406v-91.468108c0-17.21427 11.347027-28.86573 29.253189-28.86573 17.60173 0 28.86573 11.623784 28.86573 28.86573v91.468108h91.495784c17.158919 0 28.810378 11.623784 28.810378 29.197838 0 17.60173-11.623784 29.170162-28.810378 29.170162h-91.495784v90.969946c0 17.352649-11.264 29.197838-28.86573 29.197838-17.906162 0-29.253189-11.983568-29.253189-29.197838z"  horiz-adv-x="1411" />
      
      <glyph glyph-name="canjia100horsehuodong" unicode="&#58989;" d="M42.952649 409.101838v-57.759135H425.928649c-35.341838-70.628324-137.548108-159.93773-207.069406-169.651892-27.426595-3.763892-41.651892-19.206919-41.651892-43.450811 0-22.417297 17.491027-44.004324 47.49146-39.188757 78.737297 12.952216 202.170811 100.102919 244.459243 212.964325h3.736216v-376.499892h62.934487V312.015568h3.376432c42.731243-112.861405 166.054054-200.012108 244.486919-212.964325 30.000432-4.815568 47.823568 16.799135 47.823568 39.188757 0 24.271568-14.557405 39.686919-41.984 43.450811-69.465946 9.714162-171.395459 99.023568-207.014054 169.651892h383.252756v57.759135h-254.062702c65.923459 29.751351 114.217514 84.355459 114.217513 149.725405 0 74.613622-54.46573 128.691892-128.581189 128.691892-66.615351 0-127.557189-44.281081-161.515243-112.197189V830.297946h-62.934487v-254.976c-34.234811 67.916108-94.927568 112.169514-161.432216 112.169513-74.447568 0-129.024-54.050595-129.024-128.691891 0-65.314595 48.294054-119.946378 114.217514-149.725406H42.952649z m406.278919 7.195676c-104.088216 0-194.864432 70.766703-194.864433 137.132972 0 39.769946 24.797405 64.345946 62.630054 64.345946 77.049081 0 146.874811-88.230054 146.874811-187.807135v-13.671783h-14.668108z m109.927783 0h-14.668108v13.671783c0 99.577081 69.908757 187.807135 147.234595 187.807135 37.915676 0 62.380973-24.576 62.380973-64.31827 0-66.393946-90.859243-137.160649-194.94746-137.160648zM932.199784 815.159351C879.505297 866.746811 807.382486 877.844757 708.912432 877.844757H297.430486c-95.757838 0-168.295784-11.097946-220.575135-62.685406C24.631351 763.571892 13.837838 692.943568 13.837838 597.988324v-406.112865c0-97.722811 10.43373-168.434162 62.685405-219.606486 52.666811-51.559784 124.817297-62.602378 223.259676-62.602378h409.129513c98.470054 0 171.035676 11.042595 223.287352 62.602378 52.251676 51.587459 62.685405 121.883676 62.685405 219.606486V595.968c0 97.307676-10.43373 168.019027-62.685405 219.191351z m-28.063135-204.855351v-432.847568c0-58.644757-8.441081-109.263568-38.579892-139.402378-30.553946-30.083459-83.027027-38.828973-142.086919-38.828973H285.253189c-59.059892 0-111.532973 9.077622-142.086919 38.801297-30.166486 30.166486-38.524541 80.812973-38.52454 139.430054V607.979243c0 60.360649 8.38573 111.588324 38.52454 141.754811 30.221838 30.083459 83.359135 38.469189 144.134919 38.469189h436.168649c59.059892 0 111.532973-8.717838 142.086919-38.801297 30.470919-29.834378 38.579892-80.70227 38.579892-139.097946z"  horiz-adv-x="1024" />
      
      <glyph glyph-name="dingyuexiaoxi" unicode="&#58990;" d="M28.444444 109.795556c0-37.034667 27.960889-61.866667 72.874667-61.866667h218.453333c3.584-93.411556 77.909333-175.160889 185.088-175.160889 107.207111 0 181.504 81.408 185.116445 175.160889h218.112c45.226667 0 73.216 24.832 73.216 61.838222 0 51.768889-48.099556 96.312889-91.790222 139.377778-38.485333 38.741333-44.600889 116.280889-52.394667 192.142222-8.305778 176.071111-61.923556 296.362667-189.383111 339.854222C630.300444 847.274667 576.568889 896 504.860444 896c-71.793778 0-125.724444-48.725333-142.848-114.858667-127.488-43.52-181.105778-163.754667-189.383111-339.854222-7.879111-75.861333-13.937778-153.400889-52.394666-192.142222C76.231111 206.08 28.444444 161.564444 28.444444 109.795556z m102.968889 16.952888v5.688889c10.439111 16.867556 41.187556 46.563556 67.413334 75.776 39.054222 43.349333 50.915556 124.586667 58.197333 222.492445 8.106667 187.733333 66.901333 255.886222 148.764444 278.072889 13.340444 3.299556 20.821333 9.472 21.902223 23.096889 3.328 50.289778 31.857778 85.105778 77.169777 85.105777 45.283556 0 73.841778-34.816 76.885334-85.105777 1.365333-13.653333 8.874667-19.797333 22.186666-23.096889 81.863111-22.186667 140.657778-90.339556 148.764445-278.101334 7.281778-97.877333 19.285333-179.114667 58.225778-222.464 26.083556-29.212444 56.120889-58.88 66.56-75.776v-5.688889H131.413333z m270.051556-78.819555h206.734222c-3.697778-64.227556-45.397333-105.955556-103.338667-105.955556-57.912889 0-99.612444 41.728-103.395555 105.955556z"  horiz-adv-x="1024" />
      
      <glyph glyph-name="yidingyue" unicode="&#58991;" d="M1009.92 384.192c0-281.856-226.56-511.552-505.088-511.552C226.56-127.36 0 102.4 0 384.192 0 666.432 226.56 896 504.832 896c278.592 0 505.152-229.568 505.152-511.808z m-354.624 195.2l-205.824-331.264L351.36 371.2c-11.584 14.528-23.04 20.096-37.504 20.096a44.032 44.032 0 0 1-43.648-44.48c0-11.968 4.16-22.912 12.992-33.92l122.56-149.12c13.056-16.32 27.072-24.448 44.992-24.448 17.664 0 32.64 8.896 43.328 24.96l233.344 365.696c6.592 10.176 11.392 21.824 11.392 32.512 0 24.896-21.376 42.112-44.928 42.112-15.232 0-28.48-8.768-38.592-25.216z"  horiz-adv-x="1024" />
      
      <glyph glyph-name="a-trash1" unicode="&#58985;" d="M377.464421 33.435442c17.897857 0 29.293496 11.663772 28.824265 28.422066l-13.406636 462.528897c-0.402199 16.490161-12.200037 27.617668-29.226462 27.617666-17.562692 0-28.824265-11.395639-28.355033-28.355032l13.406634-462.126698a27.483601 27.483601 0 0 1 28.824266-28.153933z m128.502593 0c17.093459 0 29.15943 11.395639 29.159431 27.952833V523.984206c0 16.758294-12.065971 28.019867-29.159431 28.019865-17.294559 0-29.293496-11.261573-29.293496-28.019865v-462.528897c0-16.557194 12.065971-28.019867 29.293496-28.019867z m128.100395 0c16.758294 0 28.355032 11.060474 28.824265 27.818768l13.406634 462.394829c0.402199 16.959393-10.859374 28.153933-28.153933 28.153933-16.959393 0-28.824265-10.926408-29.293496-27.6847l-13.406636-462.260764c-0.402199-16.758294 10.725308-28.422066 28.623166-28.422066zM307.749921 677.289073h78.562879V767.046492c0 23.126445 15.819828 37.940776 40.890236 37.940776h156.522459c25.070406 0 40.890236-14.814331 40.890236-37.940776v-89.757419h78.562879V770.331118c0 66.698007-41.8287 105.845381-114.157494 105.84538h-167.046667c-72.127694 0-114.224528-39.147373-114.224528-105.84538v-93.042045z m-193.457739-49.604548h782.947465c21.450615 0 38.007809 16.490161 38.00781 37.940775a37.270445 37.270445 0 0 1-38.00781 37.873744H114.292182a37.739676 37.739676 0 0 1-38.007809-37.873744 37.538577 37.538577 0 0 1 38.007809-37.940775zM307.012555-115.914468h398.110018c65.625477 0 108.861874 40.689137 112.079465 107.186044l30.567127 644.658029h-79.099143l-29.025365-630.111831c-1.206597-27.014369-18.903355-45.113326-44.107829-45.113325H315.793902c-24.668207 0-42.700132 18.300056-43.906729 45.113325l-30.298994 629.910732H163.963764l30.634159-644.725063c3.217592-66.630975 45.850691-106.917911 112.414632-106.917911z"  horiz-adv-x="1024" />
      
      <glyph glyph-name="Frame2" unicode="&#58926;" d="M857.6 832H339.2c-57.6 0-102.4-44.8-102.4-102.4V704H70.4C32 704 0 672 0 633.6v-627.2c0-38.4 32-70.4 70.4-70.4h627.2c38.4 0 70.4 32 70.4 70.4v102.4h89.6c57.6 0 102.4 44.8 102.4 102.4V729.6c0 57.6-44.8 102.4-102.4 102.4z m19.2-627.2c0-12.8-6.4-19.2-19.2-19.2H768v448c0 38.4-32 70.4-70.4 70.4H320v25.6c0 12.8 6.4 19.2 19.2 19.2h518.4c12.8 0 19.2-6.4 19.2-19.2v-524.8z"  horiz-adv-x="1024" />
      
      <glyph glyph-name="gouwuche1" unicode="&#58983;" d="M62 797.64A36.36 36.36 0 0 0 98.36 834h104.85a76.725 76.725 0 0 0 74.475-58.455l21.42-86.985h766.125a76.77 76.77 0 0 0 73.98-97.11l-96.075-350.1a117.18 117.18 0 0 0-112.95-86.085H447.065a117.135 117.135 0 0 0-113.715 89.19L235.475 642.75a33.93 33.93 0 0 0-0.36 1.53l-28.035 113.94a4.05 4.05 0 0 1-3.915 3.06H98.315A36.36 36.36 0 0 0 62 797.64z m254.97-181.8l86.985-354.015a44.46 44.46 0 0 1 43.11-33.84h483.12a44.415 44.415 0 0 1 42.885 32.67l96.075 350.1a4.05 4.05 0 0 1-3.915 5.085H316.97zM522.44 13.335a60.57 60.57 0 1 0-121.185 0 60.57 60.57 0 0 0 121.185 0z m464.49 0a60.615 60.615 0 1 0-121.23 0 60.615 60.615 0 0 0 121.23 0z"  horiz-adv-x="1163" />
      
      <glyph glyph-name="sousuo1" unicode="&#58984;" d="M739.795861 210.213031l212.113667-212.06867a38.247055 38.247055 0 0 0-53.995842-54.085835l-212.113667 212.113667a382.020585 382.020585 0 1 0 53.995842 53.995842zM444.033635 146.452941a305.571471 305.571471 0 1 1 0 611.142942 305.571471 305.571471 0 0 1 0-611.142942z"  horiz-adv-x="1024" />
      
      <glyph glyph-name="zan-mianbiao" unicode="&#58981;" d="M36.571429 211.675429c0-147.236571 88.356571-267.556571 206.555428-267.556572h81.408c-83.236571 64.950857-121.490286 161.645714-120.685714 272.384 0.731429 118.637714 40.521143 203.117714 84.187428 264.557714h-62.171428c-107.52 0-189.293714-117.613714-189.293714-269.385142z m232.301714 4.022857c-0.658286-180.809143 138.825143-317.220571 358.107428-317.586286l63.634286-0.073143c59.684571-0.292571 105.764571 4.388571 132.681143 11.190857 40.740571 10.459429 76.068571 37.010286 76.068571 83.675429 0 17.700571-4.388571 31.085714-9.801142 41.618286-3.218286 5.266286-2.413714 9.289143 2.048 11.264 30.427429 15.067429 53.028571 43.666286 53.028571 81.188571 0 21.430857-5.924571 40.813714-15.945143 55.003429-4.169143 5.924571-3.364571 11.117714 3.510857 15.067428 21.138286 13.824 35.84 41.984 35.84 74.020572 0 23.259429-7.021714 46.811429-18.870857 59.245714-5.851429 5.705143-4.827429 10.020571 1.462857 15.433143 14.774857 13.531429 23.552 36.498286 23.552 63.707428 0 49.590857-37.741714 89.746286-87.04 89.746286H722.139429c-39.131429 0-64.804571 20.333714-64.804572 52.297143 0 62.976 78.848 181.686857 78.848 268.141714C736.109714 866.742857 706.121143 896 665.892571 896c-34.450286 0-52.662857-22.820571-72.630857-62.829714-69.778286-138.532571-162.304-251.465143-233.252571-348.379429-62.390857-84.553143-90.697143-156.745143-91.136-269.165714z"  horiz-adv-x="1024" />
      
      <glyph glyph-name="zan-xianbiao" unicode="&#58982;" d="M36.571429 221.622857c0-154.404571 98.377143-279.990857 226.011428-279.990857h141.385143c57.782857-29.110857 126.317714-45.641143 201.216-45.641143h60.196571c57.124571 0 104.667429 3.218286 135.826286 11.337143 63.268571 15.506286 103.643429 61.220571 103.643429 117.540571 0 10.459429-1.609143 19.602286-4.681143 28.745143 30.061714 23.405714 46.811429 57.051429 46.811428 94.573715a117.028571 117.028571 0 0 1-9.801142 48.713142c20.406857 20.699429 31.670857 51.2 31.670857 83.382858 0 21.138286-4.973714 42.569143-13.897143 58.368 12.434286 18.358857 19.602286 43.593143 19.602286 70.948571 0 68.754286-52.370286 122.148571-120.685715 122.148571H695.588571c-10.605714 0-17.554286 4.900571-17.188571 14.628572 3.218286 44.324571 71.68 150.454857 71.68 237.714286C749.933714 848.896 704.365714 896 641.901714 896c-45.494857 0-76.946286-24.064-106.130285-80.603429C481.28 709.632 417.645714 623.177143 321.682286 503.076571H246.125714C126.537143 503.149714 36.571429 378.88 36.571429 221.622857z m269.824 3.291429c0 91.721143 20.48 149.942857 78.994285 228.717714 65.316571 87.771429 155.794286 193.316571 220.964572 323.876571 13.385143 26.038857 22.089143 32.768 35.84 32.768 16.603429 0 27.282286-12.068571 27.282285-32.329142 0-62.756571-72.630857-170.057143-72.630857-240.493715 0-52.443429 41.398857-86.454857 99.181715-86.454857h155.209142c24.356571 0 42.715429-18.578286 42.715429-43.154286 0-17.042286-5.339429-28.306286-18.578286-41.984-13.238857-12.580571-15.067429-32.475429-3.072-45.056 10.971429-15.286857 15.872-26.404571 15.872-40.667428 0-16.969143-8.338286-31.451429-23.990857-43.52a38.180571 38.180571 0 0 1-12.580571-49.737143c8.557714-15.798857 12.873143-24.795429 12.873143-37.961143 0-19.894857-12.653714-35.620571-37.814858-48.786286a31.670857 31.670857 0 0 1-13.092571-41.691428c7.899429-19.236571 9.069714-23.698286 8.923429-32.914286 0-18.285714-13.165714-32.914286-41.691429-40.082286-25.161143-6.436571-66.121143-9.069714-121.417143-8.996571l-50.761143 0.146286c-180.882286 0.438857-302.226286 102.765714-302.226285 248.32z m-190.902858-3.364572c0 110.592 56.173714 198.070857 121.563429 201.728 11.483429 0.219429 22.893714 0.365714 34.377143 0.438857-31.890286-61.001143-45.714286-123.172571-45.714286-199.241142 0-79.945143 28.306286-150.893714 79.872-205.824l-49.225143 0.219428C179.712 22.820571 115.565714 111.396571 115.565714 221.622857z"  horiz-adv-x="1024" />
      
      <glyph glyph-name="dianhua" unicode="&#58979;" d="M910.1824 215.4496l-12.6976 16.3328-0.512 0.512a498.3296 498.3296 0 0 1-35.1232 32.8192 1085.0816 1085.0816 0 0 1-67.2768 51.1488l-57.4464 34.6624a66.304 66.304 0 0 1-29.2352 6.4c-8.192 0-16.2304-1.28-23.296-3.7888-24.832-8.704-48.0256-47.8208-54.4768-59.648a456.4992 456.4992 0 0 1-9.0112-17.7152l-0.9216-1.8432c-3.4816-6.9632-7.424-14.7968-11.5712-22.4256-4.096-7.3216-12.8-14.848-21.7088-14.848a15.5136 15.5136 0 0 0-7.7824 2.0992c-38.5024 22.1184-84.0704 50.688-130.56 95.488-52.4288 50.5856-83.5072 90.5216-100.7616 129.536-1.024 2.6624-0.9216 14.7968 5.888 18.176 9.4208 4.6592 17.1008 7.7312 23.9104 10.496l1.536 0.6656c9.728 3.9936 19.0464 7.68 29.5936 14.1312 4.5056 2.9184 6.9632 4.3008 9.0112 5.4784l1.024 0.6144c3.84 2.048 7.3728 3.9936 18.3296 11.3664l4.5568 3.7888 7.0144 6.2976c18.2784 17.664 24.32 43.6224 15.2576 66.0992L460.8 610.4064a600.6784 600.6784 0 0 1-30.3104 59.392 632.0128 632.0128 0 0 1-34.9184 52.6336c-32.8192 44.2368-63.1808 58.368-63.3344 58.4192a298.5984 298.5984 0 0 1-13.056 6.6048 77.9264 77.9264 0 0 1-62.1056-0.6144c-29.8496-11.2128-48.128-26.5216-67.584-42.752l-4.3008-3.6864c-57.8048-48.2304-89.088-111.2064-81.7152-164.352 11.0592-80.4352 103.936-244.5824 224.5632-360.7552 120.4736-116.1216 290.2016-205.3632 373.0944-215.9104 6.2464-0.8192 12.6976-1.2288 19.1488-1.2288 59.904 0 106.5984 36.5056 140.544 68.352 16.896 15.872 39.3216 42.0864 51.2 67.9936 10.5472 22.784 15.5136 55.9104-1.8432 80.9472zM291.9936 439.6544c20.6848-46.7456 55.9104-92.672 114.2784-148.8896 50.944-49.152 100.608-80.4352 142.4896-104.5504 12.032-6.8608 24.9344-10.2912 38.144-10.2912 34.1504 0 62.2592 23.3472 75.1104 46.4896 4.8128 8.7552 9.0624 17.3056 13.7728 26.7264l1.8944 3.9936c2.1504 4.1984 4.096 8.192 5.888 11.52 9.728 17.408 18.8928 27.9552 22.8864 31.5904a29.184 29.184 0 0 0 3.584-0.0512l50.9952-30.8224 0.8704-0.6144c12.3392-8.8576 43.008-31.0272 60.16-45.8752 14.9504-12.8 24.6272-22.3744 27.8016-25.4464 0.512-0.6144 0.8704-1.024 1.2288-1.2288l9.3696-11.9296a40.8576 40.8576 0 0 0-3.84-20.2752c-8.192-17.92-25.2928-37.5808-37.4784-48.9984-38.912-36.4032-68.2496-51.9168-98.1504-51.9168-3.9424 0-8.0384 0.256-12.1344 0.8192-63.3856 8.0384-222.8224 87.7568-338.5856 199.3216-115.4048 111.2064-197.9904 264.3456-206.3872 325.12-4.4544 32.0512 19.2512 74.9056 60.3648 109.2608l4.4032 3.6352c17.92 15.0016 29.696 24.9344 51.3536 33.1264a24.7808 24.7808 0 0 0 9.216 2.3552c1.792 0 3.6864-0.3584 5.3248-1.024 2.1504-1.024 5.7856-2.9184 7.9872-4.096l1.9456-1.024c0.2048-0.1024 19.6608-10.24 42.0352-40.448 11.1616-14.9504 23.3472-33.3824 31.1808-46.8992 8.6016-14.848 17.152-31.3344 25.3952-48.9472l0.8192-1.6896 2.6624-8.0384 0.3584-0.768a16.384 16.384 0 0 0-1.024-1.024l-1.7408-1.7408a47.36 47.36 0 0 1-2.048-2.048c-7.7312-5.12-10.3936-6.5536-13.1584-8.1408a192.8704 192.8704 0 0 1-12.4416-7.3216c-5.9904-3.6864-12.032-6.144-20.6336-9.6256a395.776 395.776 0 0 1-29.184-12.8512c-41.1648-20.3264-46.592-70.5024-34.7136-97.3824z"  horiz-adv-x="1024" />
      
      <glyph glyph-name="youxiang" unicode="&#58980;" d="M903.168 691.2H172.032C133.632 691.2 102.4 658.7392 102.4 618.6496v-469.2992C102.4 109.2608 133.632 76.8 172.032 76.8h731.136c38.4 0 69.632 32.4608 69.632 72.5504V618.6496C972.8 658.7392 941.568 691.2 903.168 691.2z m12.3392-101.5296v-411.904l-210.176 196.352 210.176 215.552z m-502.4768-256.3072c69.0176-51.4048 186.112-55.296 250.9824-0.768l209.92-196.1472H202.24l210.7904 196.9152z m458.4448 298.1888l-212.3264-217.7536c-75.6736-81.152-174.5408-76.288-245.9648 1.6384L207.6672 631.552H871.424z m-711.7824-41.472c0 2.048 0.1536 4.096 0.4096 6.0416l210.944-221.8496-211.3536-197.4784V590.1312z"  horiz-adv-x="1024" />
      
      <glyph glyph-name="dunpai" unicode="&#58977;" d="M907.352363 752.180404a63.592828 63.592828 0 0 1-43.568124 17.273706c-1.471464 0-2.942928 0-4.478369-0.127953a396.207632 396.207632 0 0 0-27.190092-0.76772c-26.614302 0-78.62735 1.919301-127.825424 14.010894C640.697526 798.24362 567.316264 870.857161 545.94805 885.123963a63.464875 63.464875 0 0 1-71.014124 0.063977c-2.559068-1.791347-79.459047-84.193322-154.567679-102.682585-49.26205-12.155571-102.234748-14.010895-128.785074-14.010895-16.058149 0-26.358396 0.639767-27.382023 0.76772l-4.158485 0.063977A63.976688 63.976688 0 0 1 96 705.349468v-160.261604c0-592.424135 386.739082-668.748325 403.053138-671.75523a68.071197 68.071197 0 0 1 22.647747 0c16.442009 3.006904 405.996065 79.331094 405.996065 671.75523V705.349468c0 17.785519-7.357319 34.675365-20.344587 46.830936z m-142.923922-229.228475l-268.062324-268.830045a38.961803 38.961803 0 0 0-34.867296-19.576866 39.02578 39.02578 0 0 0-34.803318 19.576866L283.451697 397.877503a39.02578 39.02578 0 1 0 55.275859 55.339836l122.835242-123.219102 247.717738 248.293528a39.02578 39.02578 0 1 0 55.211882-55.339836z"  horiz-adv-x="1024" />
      
      <glyph glyph-name="ka" unicode="&#58978;" d="M0 870.427005m102.29198 0l1074.065786 0q102.29198 0 102.29198-102.29198l0-664.897867q0-102.29198-102.29198-102.29198l-1074.065786 0q-102.29198 0-102.29198 102.29198l0 664.897867q0 102.29198 102.29198 102.29198ZM0 716.989036h1278.649746v-102.29198H0zM102.29198 461.259086h664.897868v-102.291979H102.29198zM920.627817 461.259086a51.14599 51.14599 0 0 1-51.14599-51.145989v-51.14599a51.14599 51.14599 0 0 1 51.14599-51.14599h255.729949a51.14599 51.14599 0 0 1 51.14599 51.14599v51.14599a51.14599 51.14599 0 0 1-51.14599 51.145989h-255.729949z m51.14599-51.145989h-51.14599v-51.14599h51.14599v51.14599z m51.14599 0h51.14599v-51.14599h-51.14599v51.14599z m153.437969 0h-51.14599v-51.14599h51.14599v51.14599z"  horiz-adv-x="1422" />
      
      <glyph glyph-name="a-xuanzhong" unicode="&#58976;" d="M1009.664 384.192c0-281.6-226.752-511.36-505.024-511.36-277.888 0-504.64 229.76-504.64 511.36C0 666.24 226.752 896 504.64 896c278.272 0 504.96-229.76 504.96-511.808zM467.84 588.416v-166.528H303.872c-22.464 0-38.016-15.36-38.016-38.08 0-21.632 15.936-36.48 38.016-36.48H467.84v-167.04c0-21.568 15.104-37.632 36.416-37.632 22.08 0 37.184 15.68 37.184 37.696V347.264h164.736c21.312 0 37.248 14.912 37.248 36.48 0 22.848-15.552 38.144-37.248 38.144H541.44V588.416c0 22.4-15.104 38.144-37.184 38.144-21.312 0-36.48-16.128-36.48-38.144z"  horiz-adv-x="1024" />
      
      <glyph glyph-name="tishi" unicode="&#58906;" d="M512-64A448 448 0 1 1 511.936 832.064 448 448 0 0 1 512-64zM512 756.032a372.032 372.032 0 0 0 0-744.064A372.032 372.032 0 0 0 512 756.032zM576 610.304a60.608 60.608 0 0 1-18.752 43.648A65.28 65.28 0 0 1 512 672c-16.96 0-33.28-6.528-45.248-18.048A60.608 60.608 0 0 1 448 610.304c0-16.384 6.72-32.064 18.752-43.648 11.968-11.584 28.288-18.112 45.248-18.112 16.96 0 33.28 6.528 45.248 18.112A60.608 60.608 0 0 1 576 610.304zM544 480h-64a10.496 10.496 0 0 1-10.688-10.24v-363.52c0-5.632 4.8-10.24 10.688-10.24h64a10.496 10.496 0 0 1 10.688 10.24V469.76A10.496 10.496 0 0 1 544 480z"  horiz-adv-x="1024" />
      
      <glyph glyph-name="xiejiantou" unicode="&#58975;" d="M226.855385 128.827077c16.029538-15.950769 38.124308-15.793231 54.232615 0.275692l369.900308 369.900308 84.91323 90.860308-23.552 7.995077-9.373538-189.44 0.630154-150.055385a37.848615 37.848615 0 0 1 11.421538-26.939077c14.887385-14.808615 37.021538-14.769231 52.381539 0.551385 7.128615 7.128615 10.791385 16.108308 11.027692 27.726769l0.039385 380.455384a39.463385 39.463385 0 0 1-11.421539 28.868924 39.542154 39.542154 0 0 1-28.829538 11.421538l-380.534154-0.039385c-11.579077-0.236308-20.519385-3.938462-27.687385-11.027692-15.320615-15.36-15.36-37.533538-0.551384-52.302769 7.561846-7.601231 17.329231-11.539692 26.978461-11.500308l150.055385-0.669538 189.597538 9.216-8.152615 23.709538L597.070769 552.96l-369.939692-369.939692c-16.068923-16.068923-16.187077-38.203077-0.236308-54.153846z"  horiz-adv-x="1024" />
      
      <glyph glyph-name="facebook" unicode="&#58973;" d="M608 704H768V896h-160A224.256 224.256 0 0 1 384 672V576H256V384h128v-512h192V384h160L768 576h-192V672a32.426667 32.426667 0 0 0 32 32z"  horiz-adv-x="1024" />
      
      <glyph glyph-name="whatsapp" unicode="&#58974;" d="M713.514667 296.106667c-10.922667 5.589333-65.194667 32.213333-75.306667 35.797333-10.112 3.797333-17.493333 5.589333-24.789333-5.589333-7.424-11.093333-28.416-35.84-34.986667-43.306667-6.4-7.424-12.928-8.32-23.850667-2.816-64.768 32.426667-107.264 57.813333-149.973333 131.114667-11.306667 19.498667 11.306667 18.090667 32.426667 60.16 3.584 7.424 1.749333 13.738667-1.024 19.328-2.816 5.589333-24.789333 59.818667-34.005334 81.92-8.917333 21.504-18.090667 18.474667-24.789333 18.901333-6.4 0.384-13.696 0.384-21.12 0.384a40.789333 40.789333 0 0 1-29.397333-13.696c-10.112-11.093333-38.613333-37.802667-38.613334-91.989333s39.509333-106.709333 44.928-114.133334c5.589333-7.381333 77.653333-118.613333 188.373334-166.485333 70.016-30.208 97.408-32.810667 132.394666-27.605333 21.333333 3.2 65.237333 26.624 74.325334 52.48 9.088 25.813333 9.088 47.914667 6.4 52.522666-2.688 4.906667-10.112 7.68-20.992 13.013334zM925.184 557.610667a448.213333 448.213333 0 0 1-239.573333 239.573333A445.866667 445.866667 0 0 1 512 832h-2.005333A446.933333 446.933333 0 0 1 64 381.866667a449.408 449.408 0 0 1 48-199.850667v-152.021333c0-25.386667 20.608-45.994667 45.994667-45.994667h152.106666a449.365333 449.365333 0 0 1 199.893334-48h2.133333c59.861333 0 117.973333 11.605333 172.672 34.304a444.501333 444.501333 0 0 1 142.805333 95.189333 446.848 446.848 0 0 1 132.394667 316.501334 446.250667 446.250667 0 0 1-34.816 175.616z m-151.04-438.016A370.048 370.048 0 0 0 512 11.989333h-1.706667a373.333333 373.333333 0 0 0-173.098666 43.52l-8.405334 4.48h-140.8v140.8l-4.48 8.405334a373.333333 373.333333 0 0 0-43.52 173.098666 369.706667 369.706667 0 0 0 107.605334 263.808 369.194667 369.194667 0 0 0 262.826666 109.909334h1.706667c49.962667 0 98.474667-9.728 144.213333-28.928a369.578667 369.578667 0 0 0 118.954667-80 370.474667 370.474667 0 0 0 108.885333-264.789334 370.602667 370.602667 0 0 0-110.08-262.698666z"  horiz-adv-x="1024" />
      
      <glyph glyph-name="xiazai" unicode="&#58972;" d="M504.96 849.472c-27.52 0-46.528-19.2-46.528-46.912v-637.568l5.12-151.424 27.2 13.376-155.2 171.328L205.76 327.04a46.144 46.144 0 0 1-33.088 13.312c-25.6 0-44.672-19.136-44.672-45.504 0-12.352 4.48-23.232 14.4-33.408l327.808-328a48.064 48.064 0 0 1 34.752-14.976c12.8 0 25.216 5.248 34.688 14.976l327.872 328a46.528 46.528 0 0 1 14.336 33.408c0 26.368-19.072 45.504-44.544 45.504a46.4 46.4 0 0 1-33.152-13.312l-129.92-128.768-155.52-171.328 27.52-13.44 5.12 151.488V802.56c0 27.712-18.944 46.912-46.4 46.912z"  horiz-adv-x="1024" />
      
      <glyph glyph-name="shaixuan" unicode="&#58971;" d="M164.544 565.12h747.328c20.48 0 36.736 16.832 36.736 37.312A36.928 36.928 0 0 1 911.872 640H164.48A36.864 36.864 0 0 1 128 602.432c0-20.224 16-37.248 36.544-37.248z m151.936-209.6h443.392c20.48 0 36.8 17.024 36.8 37.504a36.864 36.864 0 0 1-36.8 37.44H316.544a36.928 36.928 0 0 1-36.48-37.44c0-20.224 16.128-37.504 36.48-37.504z m63.04-196.48h317.44c20.416 0 36.736 16.768 36.736 37.248a36.864 36.864 0 0 1-36.8 37.568H379.52a36.864 36.864 0 0 1-36.48-37.568 37.12 37.12 0 0 1 36.48-37.312z"  horiz-adv-x="1024" />
      
      <glyph glyph-name="daoxiang" unicode="&#58970;" d="M638.171429 614.326857a45.714286 45.714286 0 0 0 64.658285 0l158.427429-158.500571a45.714286 45.714286 0 0 0 0-64.658286L702.902857 232.740571a45.714286 45.714286 0 1 0-64.658286 64.658286L764.269714 423.497143 638.171429 549.668571a45.714286 45.714286 0 0 0 0 64.658286zM254.537143 378.002286a13.677714 13.677714 0 0 1-13.750857-13.750857v-257.462858a45.714286 45.714286 0 0 0-91.428572 0V364.251429c0 58.075429 47.030857 105.179429 105.106286 105.179428h574.464a45.714286 45.714286 0 1 0 0-91.428571H254.537143z"  horiz-adv-x="1024" />
      
      <glyph glyph-name="gengduo" unicode="&#58969;" d="M302.545455 360.727273m-69.818182 0a69.818182 69.818182 0 1 1 139.636363 0 69.818182 69.818182 0 1 1-139.636363 0ZM535.272727 360.727273m-69.818182 0a69.818182 69.818182 0 1 1 139.636364 0 69.818182 69.818182 0 1 1-139.636364 0ZM768 360.727273m-69.818182 0a69.818182 69.818182 0 1 1 139.636364 0 69.818182 69.818182 0 1 1-139.636364 0Z"  horiz-adv-x="1024" />
      
      <glyph glyph-name="gou" unicode="&#58968;" d="M1301.959111 775.395556a71.111111 71.111111 0 0 0-0.227555-100.465778L519.509333-103.537778a71.111111 71.111111 0 0 0-100.352 0L63.715556 250.311111a71.111111 71.111111 0 1 0 100.352 100.807111L469.333333 47.217778l732.046223 728.519111a71.111111 71.111111 0 0 0 100.579555-0.227556z"  horiz-adv-x="1365" />
      
      <glyph glyph-name="jian" unicode="&#58967;" d="M67.1744 297.984H939.52c36.0448 0 67.1744 31.1296 67.1744 68.096 0 37.12-31.1296 67.9424-67.1744 67.9424H67.1744C32 434.0224 0 403.2 0 366.08c0-36.9664 32-68.096 67.1744-68.096z"  horiz-adv-x="1024" />
      
      <glyph glyph-name="jia" unicode="&#58962;" d="M0.000512 384.1024c0-37.8368 30.7712-68.608 67.84-68.608h367.7696v-373.9136c0-37.632 30.464-68.9152 67.5328-68.9152 37.4784 0 67.9936 31.232 67.9936 68.9152v373.8624h367.7696a68.608 68.608 0 0 1 67.84 68.608 68.608 68.608 0 0 1-67.84 68.9664h-367.8208V826.88C571.136512 864.768 540.672512 896 503.194112 896c-37.0688 0-67.5328-31.2832-67.5328-69.12v-373.8624H67.840512A68.608 68.608 0 0 1 0.000512 384.1024z"  horiz-adv-x="1024" />
      
      <glyph glyph-name="youyong" unicode="&#58963;" d="M944-8.064c0 19.84-8.576 35.392-18.88 56.96L570.816 780.608C550.592 822.016 531.2 836.224 504 836.224c-26.688 0-46.08-14.208-66.752-55.552L83.392 48.832c-10.752-21.952-19.392-37.44-19.392-57.28 0-37.504 28.032-60.352 72.384-60.352l735.68 0.448c43.968 0 72 22.848 72 60.288z m-89.152 22.4c0-4.288-3.008-6.848-9.024-6.848H162.304c-6.08 0-8.64 2.56-8.64 6.912 0 3.008 1.28 5.568 3.008 8.576L495.36 728.064c1.728 3.456 4.736 7.36 8.576 7.36 4.352 0 7.36-3.904 9.088-7.36L851.84 23.04c1.28-3.008 3.008-5.568 3.008-8.576z"  horiz-adv-x="1024" />
      
      <glyph glyph-name="jia1" unicode="&#58964;" d="M504.64-120.384c278.656 0 504.96 225.92 504.96 504.64a505.344 505.344 0 0 1-504.96 504.96C225.92 889.28 0 662.976 0 384.32a504.704 504.704 0 0 1 504.64-504.64z m0 72.064a432.192 432.192 0 0 0-432.576 432.576 432.192 432.192 0 0 0 432.576 432.512 432.256 432.256 0 0 0 432.512-432.512 432.192 432.192 0 0 0-432.512-432.576zM275.584 384.192c0-20.544 14.72-34.944 36.48-34.944h156.544v-156.928c0-21.312 14.72-36.48 35.2-36.48 21.376 0 36.096 14.72 36.096 36.48V349.248h156.992c21.312 0 36.48 14.4 36.48 34.944 0 21.696-14.784 36.416-36.48 36.416H539.904V577.152c0 21.76-14.72 36.864-36.032 36.864-20.544 0-35.264-15.104-35.264-36.864v-156.544H312c-21.696 0-36.48-14.72-36.48-36.48z"  horiz-adv-x="1024" />
      
      <glyph glyph-name="xingxing" unicode="&#58965;" d="M554.666667 896l173.738666-315.477333 353.792-67.754667-246.357333-262.826667 44.885333-357.376L554.666667 45.738667 228.693333-107.52l44.8 357.376L27.136 512.853333l353.792 67.754667L554.666667 896z"  horiz-adv-x="1109" />
      
      <glyph glyph-name="youyong1" unicode="&#58966;" d="M944-8.064c0 19.84-8.576 35.392-18.88 56.96L570.816 780.608C550.592 822.016 531.2 836.224 504 836.224c-26.688 0-46.08-14.208-66.752-55.552L83.392 48.832c-10.752-21.952-19.392-37.44-19.392-57.28 0-37.504 28.032-60.352 72.384-60.352l735.68 0.448c43.968 0 72 22.848 72 60.288z"  horiz-adv-x="1024" />
      
      <glyph glyph-name="yuyan" unicode="&#58960;" d="M127.616 166.464l56.192 107.136c13.632 26.24 27.136 40.832 40.96 40.832 13.504 0 28.544-13.696 51.712-44.672 47.616-60.544 77.248-87.488 107.648-87.488 31.104 0 67.584 43.52 67.584 76.288 0 18.624-26.24 37.248-28.48 47.488-0.576 4.352 3.584 7.04 9.856 7.04 70.656 0 133.504 58.688 133.504 106.88 0 44.416-47.488 78.272-47.488 90.24 0 2.816 1.92 4.928 4.544 4.928 3.84 0 8.576-4.224 19.584-12.544 55.68-44.8 82.56-18.624 87.936 8.32 2.24 11.776 8.704 21.312 32.64 33.408 55.04 28.672 102.336 74.112 102.336 111.104 0 49.728-65.28 70.08-65.28 81.28 0 6.848 16.128 13.632 45.888 20.288l-13.056 52.48c-54.912-14.08-92.48-40.128-92.48-69.76 0-40.064 71.36-63.232 71.36-84.288 0-20.864-39.68-44.608-69.632-61.12-52.8-29.824-50.368-46.528-55.296-58.688-10.24-18.432-32.448 24.512-73.6 24.512-25.856 0-45.056-17.472-45.056-42.176 0-37.76 43.648-72.96 43.648-97.92 0-29.888-35.072-57.984-94.72-57.984-34.368 0-53.952-16.128-53.952-43.648 0-26.24 31.744-50.88 31.744-62.08 0-7.616-6.08-16-10.624-16-9.344 0-32.64 20.544-65.536 62.912-33.216 43.072-62.272 65.088-91.712 65.088-38.528 0-65.664-29.056-84.48-63.04l-47.872-87.488 32.128-51.328z m593.728-196.288l43.072 33.024c-21.632 28.288-49.152 73.28-109.76 73.28-37.568 0-42.688-11.2-66.432-11.2-12.352 0-19.328 10.88-25.6 36.864-6.08 24.512-7.232 38.4 5.12 43.52 17.088 6.016 76.288 13.248 96.832 76.288 13.632 41.216 25.792 56.192 47.296 56.192 39.04 0 39.296-43.84 83.712-43.84 22.976 0 34.176 9.472 48.96 9.472 19.776 0 33.28-21.632 37.056-72.128l53.888 21.056c-7.744 66.048-39.68 104.832-84.48 104.832-12.544 0-26.56-2.112-39.296-6.656-12.736-4.16-17.088-2.88-27.712 9.472-20.48 23.04-38.528 31.744-66.624 31.744-50.56 0-82.048-25.6-105.024-94.4-5.504-18.048-12.736-23.36-45.76-36.096l-20.16-7.552c-39.68-15.04-50.688-43.904-37.184-103.872 12.352-51.84 38.144-79.168 74.816-79.168 31.872 0 50.56 11.2 70.656 11.2 29.44 0.576 42.88-18.816 66.56-52.032zM626.24 412.032c30.912 0 44.992 27.904 80.128 38.144 23.104 6.848 35.264 30.592 35.264 50.688 0 16.32-7.936 30.4-25.6 30.4-18.816 0-36.288-14.848-47.68-38.912-6.272-14.08-16.64-20.928-42.112-27.968-20.16-6.08-27.392-13.44-27.392-28.672 0-16.512 12.544-23.68 27.392-23.68z m-141.44-219.52c27.52 0 54.08 31.488 54.08 60.16 0 34.56-14.656 50.944-30.976 50.944-18.24 0-29.824-21.312-29.824-53.952 0-18.816-16.512-19.584-16.512-38.4 0-11.52 9.152-18.752 23.168-18.752z m-81.664-90.368c20.672 0 34.176 10.816 34.176 28.672 0 13.248-10.496 21.76-25.088 21.76-57.536 0-60.032 32.704-87.936 32.704-15.36 0-26.368-9.088-26.368-22.4 0-10.816 11.008-18.752 25.28-18.752 30.912 0 16.32-41.984 79.936-41.984zM511.936-128C792.704-128 1024 103.296 1024 383.936 1024 664.704 792.512 896 511.552 896 230.912 896 0 664.704 0 383.936 0 103.296 231.296-128 511.936-128z m0 89.6C280.64-38.4 89.6 152.64 89.6 384c0 231.424 190.656 422.4 421.952 422.4 231.68 0 422.848-190.976 422.848-422.4 0-231.296-191.04-422.336-422.464-422.336z"  horiz-adv-x="1024" />
      
      <glyph glyph-name="xiala" unicode="&#58961;" d="M512 308.16l242.048 253.76a43.968 43.968 0 0 0 64.512 0 49.28 49.28 0 0 0 0-67.648l-267.84-280.768a41.856 41.856 0 0 0-5.824-7.488 43.392 43.392 0 0 0-32.96-14.016 45.184 45.184 0 0 0-38.72 21.504L205.376 494.272A49.088 49.088 0 0 0 192 528.128c0 12.288 4.544 24.576 13.376 33.792a43.968 43.968 0 0 0 64.512 0l242.048-253.76z"  horiz-adv-x="1024" />
      
      <glyph glyph-name="a-Frame427322580" unicode="&#58955;" d="M822.4 383.616a32.768 32.768 0 0 0-10.24-23.616l-221.568-221.632a32.64 32.64 0 0 0-23.68-10.88 29.952 29.952 0 0 0-31.232 30.336c0 8.896 3.392 16.64 9.28 22.464l87.232 88.32 117.568 108.416 10.048-19.2-109.632-5.76h-426.24C205.12 352 192 364.8 192 383.552c0 18.432 13.12 31.552 31.936 31.552h426.24l109.632-6.08-10.048-18.944-117.568 108.48-87.232 87.936a32.512 32.512 0 0 0-9.28 22.784c0 17.28 13.248 30.272 31.232 30.272 8.128 0 15.68-3.328 22.592-9.728l222.592-222.912a32 32 0 0 0 10.304-23.36z"  horiz-adv-x="1024" />
      
      <glyph glyph-name="a-Frame427321789" unicode="&#58959;" d="M201.6 383.616c0-8.704 3.648-17.216 10.24-23.616l221.568-221.632a32.64 32.64 0 0 1 23.68-10.88 29.952 29.952 0 0 1 31.232 30.336 31.04 31.04 0 0 1-9.28 22.464l-87.232 88.32L274.24 376.96l-10.048-19.2 109.632-5.76h426.24c18.88 0 31.936 12.8 31.936 31.552a30.4 30.4 0 0 1-31.936 31.552h-426.24l-109.632-6.08 10.048-18.944 117.568 108.48 87.232 87.936a32.512 32.512 0 0 1 9.28 22.784 29.952 29.952 0 0 1-31.232 30.272 32.832 32.832 0 0 1-22.592-9.728L211.84 406.976a32 32 0 0 1-10.304-23.36z"  horiz-adv-x="1024" />
      
      <glyph glyph-name="zuo" unicode="&#58953;" d="M146.285714 384.208087c0.438847 25.160586 9.142655 45.347567 28.96393 64.729995L605.612686 873.449825A73.141238 73.141238 0 0 0 660.249191 895.977326c43.811601 0 79.504525-35.327218 79.504525-79.577666 0-21.649806-8.923231-42.202494-25.233727-58.293567L333.015294 384.646934l381.504695-373.898006c16.091072-16.310496 25.233727-36.204913 25.233727-58.51299 0-44.250449-35.692924-80.016514-79.504525-80.016514a73.87265 73.87265 0 0 0-54.709646 22.746925L175.249644 319.478092C155.208945 339.372508 146.285714 359.705772 146.285714 384.208087z"  horiz-adv-x="1024" />
      
      <glyph glyph-name="you" unicode="&#58957;" d="M851.52017 384.206623c-0.438846 25.160478-9.288897 45.347373-29.402652 64.729718L385.685624 873.446265A74.603743 74.603743 0 0 1 330.244804 895.973669c-44.396541 0-80.674439-35.327066-80.67444-79.577325 0-21.649714 9.069475-42.202313 25.599324-58.293317l386.915488-373.457558-386.915488-373.896405c-16.310426-16.310426-25.599323-36.204757-25.599324-58.512739a80.455017 80.455017 0 0 1 80.67444-80.016171c21.649714 0 40.227508 7.533515 55.44082 22.746828L822.117518 319.476905c20.333177 19.894331 29.402652 40.227508 29.402652 64.729718z"  horiz-adv-x="1024" />
      
      <glyph glyph-name="sousuo" unicode="&#58948;" d="M39.380874 478.444308c0-210.707692 171.716923-382.424615 382.818461-382.424616 85.070769 0 163.367385 28.002462 226.89477 75.303385l249.304615-249.659077c9.452308-9.846154 22.685538-14.729846 36.273231-14.729846 29.892923 0 49.939692 22.685538 49.939692 51.042461a50.018462 50.018462 0 0 1-13.981538 35.564308l-248.123077 249.265231a377.895385 377.895385 0 0 1 82.432 235.638154c0 211.062154-171.716923 382.818462-382.779077 382.818461C211.097797 861.223385 39.380874 689.467077 39.380874 478.404923z m70.734769 0c0 172.110769 139.933538 312.044308 312.044308 312.044307s311.689846-139.933538 311.689846-312.044307c0-171.716923-139.579077-311.650462-311.689846-311.650462-172.110769 0-312.044308 139.933538-312.044308 311.650462z"  horiz-adv-x="1024" />
      
      <glyph glyph-name="shanchu" unicode="&#58951;" d="M251.667692 68.923077a54.784 54.784 0 0 0-38.754461 93.499077l520.664615 520.625231a54.744615 54.744615 0 1 0 77.469539-77.469539L290.422154 84.952615a54.626462 54.626462 0 0 0-38.715077-16.029538zM772.332308 68.923077c-14.060308 0-28.081231 5.356308-38.754462 16.029538L212.952615 605.577846a54.784 54.784 0 0 0 77.469539 77.469539l520.625231-520.625231A54.784 54.784 0 0 0 772.292923 68.923077z"  horiz-adv-x="1024" />
      
      <glyph glyph-name="gouwuche" unicode="&#58954;" d="M0 846.165333C0 873.667048 22.332952 896 49.834667 896h182.808381c48.030476 0 89.234286-34.279619 98.011428-81.529905l109.470476-591.238095h606.403048a49.834667 49.834667 0 1 0 0-99.669333H440.124952c-48.030476 0-89.234286 34.279619-98.011428 81.529904L232.643048 796.330667H49.834667A49.834667 49.834667 0 0 0 0 846.165333zM280.380952 655.896381A80.944762 80.944762 0 0 0 359.862857 752.786286h729.478095a80.944762 80.944762 0 0 0 80.262096-91.672381l-36.571429-274.139429a80.944762 80.944762 0 0 0-80.213333-70.265905H414.622476a80.944762 80.944762 0 0 0-79.433143 65.097143L280.380952 655.896381z m79.433143 34.57219a18.67581 18.67581 0 0 1-18.334476-22.332952l54.808381-274.090667c1.755429-8.777143 9.411048-15.067429 18.334476-15.067428H1052.769524a18.67581 18.67581 0 0 1 18.529524 16.237714l36.522666 274.090667a18.67581 18.67581 0 0 1-18.529524 21.162666H359.814095zM548.181333-25.990095a74.752 74.752 0 1 0-149.504 0 74.752 74.752 0 0 0 149.504 0zM1046.528-25.990095a74.752 74.752 0 1 0-149.504 0 74.752 74.752 0 0 0 149.504 0z"  horiz-adv-x="1170" />
      
      <glyph glyph-name="zanting1" unicode="&#58956;" d="M318.765176 112.941176h68.668236c32.647529 0 47.646118 19.877647 47.646117 49.513412V666.383059c0 28.973176-15.058824 48.911059-47.706353 48.911059H318.765176C286.599529 715.294118 271.058824 695.416471 271.058824 666.383059v-503.928471c0-29.575529 15.540706-49.513412 47.706352-49.513412z m318.403765 0h68.608c31.623529 0 47.164235 19.877647 47.164235 49.513412V666.383059C752.941176 695.416471 737.400471 715.294118 705.776941 715.294118h-68.668235c-32.647529 0-48.188235-19.877647-48.188235-48.911059v-503.928471c0-29.575529 15.540706-49.513412 48.188235-49.513412z"  horiz-adv-x="1024" />
      
      <glyph glyph-name="bofang1" unicode="&#58958;" d="M288.768 145.976889c0-34.019556 20.309333-50.346667 44.259556-50.346667 10.24 0 21.105778 3.128889 31.459555 9.102222l395.434667 231.936c25.827556 15.018667 36.522667 26.737778 36.522666 45.340445 0 18.830222-10.695111 30.606222-36.522666 45.624889L364.487111 659.626667A63.772444 63.772444 0 0 1 333.027556 668.444444c-23.950222 0-44.259556-16.099556-44.259556-50.176v-472.291555z"  horiz-adv-x="1024" />
      
    </font>
</defs>
</svg>
